Ультиматум Борна / The Bourne Ultimatum (Пол Гринграсс / Paul Greengrass) [2007, Боевик, триллер, BDRip] Dub (BD CEE) + DVO (Гланц и Королева) + AVO (Гаврилов)+ AVO (Живов) + Original (Eng) + Subs (Rus, Eng)

 
Автор Сообщение

TorrentFilm ®

Пол:

Стаж: 2 года 6 месяцев

Сообщений: 7773



Награды: Нет

Торрент-статистика

Создавать темы 26-Июн-2015 00:06

[Цитировать]

Ультиматум Борна / The Bourne Ultimatum
«Вспомнить все. Не прощать ничего.»
- Год выпуска: 2007
Выпущено: США, Германия / Universal Pictures
Жанр: боевик, триллер
Продолжительность: 01:55:19
Перевод (1): Профессиональный (полное дублирование) BD CEE
Перевод (2): Профессиональный (двухголосый закадровый) Гланц и Королева
Перевод (3): Авторский (одноголосый закадровый) Андрей Гаврилов
Перевод (4): Авторский (одноголосый закадровый) Юрий Живов
Перевод (5): Оригинальная дорожка
Cубтитры: Русские, Английские (внешние .srt*)-Режиссер:
Пол Гринграсс / Paul Greengrass-В ролях:
Мэтт Дэймон (Jason Bourne), Джулия Стайлз (Nicky Parsons), Дэвид Стрэтэйрн (Noah Vosen), Скотт Гленн (Ezra Kramer), Пэдди Консидайн (Simon Ross), Эдгар Рамирез (Paz), Альберт Финни (Dr. Albert Hirsch), Джоан Аллен (Pam Landy), Том Гэллоп (Tom Cronin), Кори Джонсон (Wills), Даниэль Брюль (Martin Kreutz), Джои Анса (Desh)-Описание:
Он хотел одного — исчезнуть. Вместо этого за Борном теперь охотятся люди, которые сделали его таким, какой он есть. Он потерял память и человека, которого он любил. Но его не удается сдержать даже новому поколению профессиональных убийц. У него только одна цель: вернуться к началу и узнать кем он был, Джейсон Борн.
Он мечется от Москвы к Парижу, через Мадрид и Лондон в Танжер и Нью-Йорк, пытаясь раскрыть последние загадки своего прошлого, в то время, как правительственные агенты и Интерпол пытаются помешать ему восстановить всю картину до конца.-Релиз групп | | IMDB | КиноПоиск | Сэмпл |-Качество: BDRip [BDRemux | 1080p | HDTRACKER]
Формат: AVI
Видео: 720x304 (2.37:1), 23.976 fps, XviD build 73 ~1941 kbps avg, 0.37 bit/pixel
Аудио #1: 48 kHz, AC3 Dolby Digital, 3/2 (L,C,R,l,r) + LFE ch, ~384.00 kbps avg (DUB)
Аудио #2: 48 kHz, AC3 Dolby Digital, 3/2 (L,C,R,l,r) + LFE ch, ~384.00 kbps avg (ENG)-(2.18 Gb)-Аудио #3: 48 kHz, AC3 Dolby Digital, 3/2 (L,C,R,l,r) + LFE ch, ~384.00 kbps avg (DVO) Гланц и Королева отдельно
Аудио #4: 48 kHz, AC3 Dolby Digital, 3/2 (L,C,R,l,r) + LFE ch, ~384.00 kbps avg (AVO) Андрей Гаврилов отдельно
Аудио #5: 48 kHz, AC3 Dolby Digital, 3/2 (L,C,R,l,r) + LFE ch, ~384.00 kbps avg (AVO) Юрий Живов отдельно
-

Скриншоты

MediaInfo

General
Complete name                            : D:\Ultimatum_Borna_2007_BDRip_[2.18]_by_Dalemake.avi
Format                                   : AVI
Format/Info                              : Audio Video Interleave
Format profile                           : OpenDML
File size                                : 2.19 GiB
Duration                                 : 1h 55mn
Overall bit rate                         : 2 716 Kbps
Writing application                      : VirtualDubMod 1.5.10.3 | www.virtualdub-fr.org || (build 2550/release)
Writing library                          : VirtualDubMod build 2550/release
Video
ID                                       : 0
Format                                   : MPEG-4 Visual
Format profile                           : Advanced Simple@L5
Format settings, BVOP                    : 2
Format settings, QPel                    : No
Format settings, GMC                     : No warppoints
Format settings, Matrix                  : Custom
Codec ID                                 : XVID
Codec ID/Hint                            : XviD
Duration                                 : 1h 55mn
Bit rate                                 : 1 931 Kbps
Width                                    : 720 pixels
Height                                   : 304 pixels
Display aspect ratio                     : 2.35:1
Frame rate                               : 23.976 fps
Color space                              : YUV
Chroma subsampling                       : 4:2:0
Bit depth                                : 8 bits
Scan type                                : Progressive
Compression mode                         : Lossy
Bits/(Pixel*Frame)                       : 0.368
Stream size                              : 1.56 GiB (71%)
Writing library                          : XviD 73
Audio #1
ID                                       : 1
Format                                   : AC-3
Format/Info                              : Audio Coding 3
Mode extension                           : CM (complete main)
Format settings, Endianness              : Big
Codec ID                                 : 2000
Duration                                 : 1h 55mn
Bit rate mode                            : Constant
Bit rate                                 : 384 Kbps
Channel(s)                               : 6 channels
Channel positions                        : Front: L C R, Side: L R, LFE
Sampling rate                            : 48.0 KHz
Bit depth                                : 16 bits
Compression mode                         : Lossy
Stream size                              : 316 MiB (14%)
Alignment                                : Split accross interleaves
Interleave, duration                     : 42 ms (1.00 video frame)
Interleave, preload duration             : 500 ms
Audio #2
ID                                       : 2
Format                                   : AC-3
Format/Info                              : Audio Coding 3
Mode extension                           : CM (complete main)
Format settings, Endianness              : Big
Codec ID                                 : 2000
Duration                                 : 1h 55mn
Bit rate mode                            : Constant
Bit rate                                 : 384 Kbps
Channel(s)                               : 6 channels
Channel positions                        : Front: L C R, Side: L R, LFE
Sampling rate                            : 48.0 KHz
Bit depth                                : 16 bits
Compression mode                         : Lossy
Stream size                              : 316 MiB (14%)
Alignment                                : Split accross interleaves
Interleave, duration                     : 42 ms (1.00 video frame)
Interleave, preload duration             : 500 ms
-
[Профиль] [ЛС]

Создавать темы 06-Авг-2015 22:29 (спустя 1 месяц 10 дней)

Топик был перенесен из форума Фильмы до 2014 года в форум Фильмы до 2012 года
sergej644
 
Кто просматривает тему:

Показать сообщения:    

Текущее время: Сегодня 09:06

Часовой пояс: GMT



Вы не можете начинать темы
Вы не можете отвечать на сообщения
Вы не можете редактировать свои сообщения
Вы не можете удалять свои сообщения
Вы не можете голосовать в опросах
Вы не можете прикреплять файлы к сообщениям
Вы не можете скачивать файлы