Ультиматум Борна / The Bourne Ultimatum (Пол Гринграсс / Paul Greengrass) [2007, США, Германия, боевик, триллер, криминал, HDTVRip] Dub

 
Автор Сообщение

TorrentFilm ®

Пол:

Стаж: 2 года

Сообщений: 7741



Награды: Нет

Торрент-статистика

Создавать темы 05-Фев-2015 00:00

[Цитировать]

Ультиматум Борна / The Bourne Ultimatum
Страна: США, Германия
Жанр: боевик, триллер, криминал
Год выпуска: 2007
Продолжительность: 01:42:42
Перевод: Профессиональный (дублированный)
Cубтитры: нет
Оригинальная аудиодорожка: нет
Режиссер: Пол Гринграсс / Paul Greengrass
В ролях: Мэтт Дэймон, Франка Потенте, Крис Купер, Клайв Оуэн, Брайан Кокс, Адеуэйл Акиннуйе-Агбайе, Гэбриел Манн, Уолт Гоггинс, Джош Хэмилтон, Джулия Стайлз, Орсо Мария Джеррини, Тим Даттон, Дэнис Брассини, Никки Нод, Дэвид Селбург, Деметри Горицас, Рассел Леви, Энтони Грин, Хьюберт Сен-Макари, Дэвид Бамбер
Описание: Команда итальянского рыболовецкого судна находит в водах Средиземного моря тело мужчины. У него два пулевых ранения в спине и имплантированный в бедро микрофильм, помеченный номером швейцарского банка. Когда незнакомец приходит в себя, оказывается, что он не помнит кто он, и что с ним случилось, однако он может говорить на нескольких языках и обладает другими необычными способностями.
Получив в Цюрихе деньги с указанного банковского счета, он узнает свое имя Джейсон Борн. Но настоящее это его имя или нет? Пытаясь восстановить свое прошлое, он находит свой адрес в Париже, но вместе с этим понимает, что отслеживается убийцей. Борн уговаривает немецкую студентку Мэри отвезти его в Париж, чтобы выяснить все о своем прошлом и понять, кто хочет его убить...
Доп. информация: Рип с канала Первый HD. Из видеоряда удален логотип телеканала, остались послерекламные вставки с названием фильма. HDTV имеет иное наполнение кадра, чем BD http://screenshotcomparison.com/comparison/113179
Сэмпл: http://multi-up.com/1031077
Качество видео: HDTVRip
Формат видео: AVI
Видео: MPEG4, XviD, 720x400 (16/9), 25.000 fps, 1 824 Kbps (0.253 bit/pixel)
Аудио: AC-3, 48.0 KHz, 2 ch, 192 Kbps, CBR

MediaInfo

Общее
Полное имя : K:\Ультиматум Борна.avi
Формат : AVI
Формат/Информация : Audio Video Interleave
Размер файла : 1,45 Гбайт
Продолжительность : 1 ч. 42 м.
Общий поток : 2026 Кбит/сек
Название фильма : Ультиматум Борна / The Bourne Ultimatum (2007)
Программа кодирования : VirtualDubMod 1.5.10.2 (build 2540/release)
Библиотека кодирования : VirtualDubMod build 2540/release
Правообладатель : miha2154
Видео
Идентификатор : 0
Формат : MPEG-4 Visual
Профиль формата : Advanced Simple@L5
Параметр BVOP формата : 1
Параметр QPel формата : Нет
Параметр GMC формата : Без точки перехода
Параметр матрицы формата : Выборочная
Идентификатор кодека : XVID
Идентификатор кодека/Подсказка : XviD
Продолжительность : 1 ч. 42 м.
Битрейт : 1824 Кбит/сек
Ширина : 720 пикселей
Высота : 400 пикселей
Соотношение сторон : 16:9
Частота кадров : 25,000 кадров/сек
Цветовое пространство : YUV
Субдискретизация насыщенности : 4:2:0
Битовая глубина : 8 бит
Тип развёртки : Прогрессивная
Метод сжатия : С потерями
Бит/(Пиксели*Кадры) : 0.253
Размер потока : 1,31 Гбайт (90%)
Библиотека кодирования : XviD 65
Аудио
Идентификатор : 1
Формат : AC-3
Формат/Информация : Audio Coding 3
Расширение режима : CM (complete main)
Параметр Endianness формата : Big
Идентификатор кодека : 2000
Продолжительность : 1 ч. 42 м.
Вид битрейта : Постоянный
Битрейт : 192 Кбит/сек
Каналы : 2 канала
Расположение каналов : Front: L R
Частота : 48,0 КГц
Битовая глубина : 16 бит
Метод сжатия : С потерями
Размер потока : 141 Мбайт (9%)
Выравнивание : Разделение по промежуткам
Продолжительность промежутка : 40 мс. (1,00 видеокадр)
Время предзагрузки промежутка : 500 мс.
Заголовок : Профессиональный (полное дублирование)

Скриншоты

[Профиль] [ЛС]

Создавать темы 06-Авг-2015 22:47 (спустя 6 месяцев 1 день)

Топик был перенесен из форума Фильмы до 2014 года в форум Фильмы до 2012 года
sergej644
 
Кто просматривает тему:

Форум Тема Автор Размер
Работа с носителями информации Daemon Tools PRO Advanced 4.41.0315.0262 RePack x86+x64+DAEMON Tools Pro 5.0.0316.0317 RePack by CTYDEHT [Мульти, есть русский 2011] TorrentFilm 20 MB
Программы [Мультимедиа] Lapse It - Time Lapse Camera v4.70 [Android 2.2+, ENG] TorrentFilm 7 MB
Программы [Разное] RetroArch - мультиплатформенный эмулятор v1.0.0.2 r34 [Android 2.3+, Multi] TorrentFilm 50 MB
Отечественные мультфильмы Боевые страницы (Дмитрий Бабиченко) [1939, мультипликационный фильм-плакат, DVDRip] Eng hardsub TorrentFilm 138 MB
Отечественные мультфильмы Будем зорки (Николай Ходатаев) [1927, мультипликационный фильм-плакат, DVDRip] Eng hardsub TorrentFilm 49 MB
Отечественные мультфильмы Кино-цирк (Ольга Ходатаева, Леонид Амальрик) [1942, мультипликационный фильм-плакат, DVDRip] Eng hardsub TorrentFilm 66 MB
Отечественные мультсериалы Маша и медведь [01-50] / Машкины страшилки [01, 02] (Олег Ужинов, Денис Червяцов, Олег Кузовков) (2009-2015 Мультипликационный сериал) DVDRip, HDRip, BDRip, WEB-DLRip BOSS 6.13 GB
Фантастика и фэнтези Михайлов Дем - Мир Вальдиры. Господство Клана Неспящих 5. Ультиматум (2016) MP3 Swager 816 MB
Показать сообщения:    

Текущее время: Сегодня 08:30

Часовой пояс: GMT



Вы не можете начинать темы
Вы не можете отвечать на сообщения
Вы не можете редактировать свои сообщения
Вы не можете удалять свои сообщения
Вы не можете голосовать в опросах
Вы не можете прикреплять файлы к сообщениям
Вы не можете скачивать файлы