Улыбка пересмешника (2014) IPTVRip [1-14 серии из 16] (Обновляемая)

 
Автор Сообщение

sergej644 ®

Пол:

Стаж: 4 года 11 месяцев

Сообщений: 6046

Откуда: Soviet Union



Награды: Нет

Торрент-статистика

Создавать темы 11-Ноя-2014 11:31

[Цитировать]

-Улыбка пересмешника (2014) IPTVRip [1-14 серии из 16]-Год выпуска: 2014
Жанр: Детектив, Мелодрама
Дата российской премьеры: 3 ноября 2014
Режиссер: Алексей Рудаков
Актеры: Елена Аросьева, Кирилл Сафонов, Анна Казючиц, Андрей Фролов (II), Алексей Фатеев, Людмила Полякова, Марина Куделинская, Андрей Межулис, Сергей Тезов, Владимир Стержаков, Илья Оболонков, Натали Старынкевич, Любовь Тихомирова, Алёна Кузнецова, Юлия Пивень, Галина Анисимова (II), Людмила Уланова (II), Наталья Гаранина, Ксения Волкова, Максим Сапрыкин (II), Светлана Виноградова, Андрюс Паулавичюс, Сергей Вещёв, Тимур Бадалбейли, Андрей Иванов (VI), Дмитрий Бурлаков, Кирилл Болтаев, Сергей Чудаков, Маргарита Шилова, Иван Агапов, Елена Муромцева (II), Геннадий Семёнов, Татьяна Тимакова, Артур Казберов, Анна Канарис, Юрий Сазонов, Елена Ветрова, Надежда Исайкина, Александра Булычёва
Описание фильма:
В маленьком южном городке, где жила Вика, все девушки мечтали об одном - встретить успешного, красивого и любящего мужа… И Вика его встретила. Кирилл был из Москвы, владел собственным бизнесом, и готов был сделать всё ради любимой. Красивый роман, свадьба, переезд в большой дом в столице, рождение двух детей – жизнь Вики была похожа на сказку… которой было суждено однажды закончиться.
Продолжительность: ~ 00:47:00 серия
Качество видео: IPTVRip
Сэмпл: Скачать
Видеокодек: Xvid
Битрейт видео: ~1500 kb/s
Размер кадра: 720x400
Аудиокодек: MP3
Битрейт аудио: 2 ch, 128 kb/s

Внимание! Раздача ведётся путём добавления новых серий

Внимание! Раздача ведётся путём добавления новых серий; при каждом добавлении создаётся новый торрент.
Чтобы начать докачку новой серии, пользователям необходимо сделать следующее:
1. Остановить скачивание;
2. Удалить старый торрент у себя из клиента (старые серии удалять не надо);
3. Скачать новый торрент и запустить его у себя в клиенте вместо старого, при этом указать клиенту путь в старую папку куда и должно происходить скачивание новых серий. Ваш клиент при этом должен произвести хеширование (проверку) старой папки и будет докачивать только те серии, которых у вас ещё нет. Старые серии при этом не удаляются, а продолжают раздаваться! Eсли вы уже удалили старые серии, то предотвратить повторную закачку старых серий можно, отжав галочку в соответствующих местах при запуске нового торрента.

MediaInfo:

Общее
Полное имя                               : E:\Фильмы\Улыбка.пересмешника.IPTVRip\Улыбка.пересмешника.01.IPTVRip.avi
Формат                                   : AVI
Формат/Информация                        : Audio Video Interleave
Размер файла                             : 554 Мбайт
Продолжительность                        : 47 м.
Общий поток                              : 1638 Кбит/сек
Программа кодирования                    : VirtualDubMod 1.5.10.3 | [url=http://www.virtualdub-fr.org]www.virtualdub-fr.org[/url] || (build 2550/release)
Библиотека кодирования                   : VirtualDub build 35491/release
Видео
Идентификатор                            : 0
Формат                                   : MPEG-4 Visual
Профиль формата                          : Advanced Simple@L5
Параметр BVOP формата                    : 2
Параметр QPel формата                    : Нет
Параметр GMC формата                     : Без точки перехода
Параметр матрицы формата                 : Default (H.263)
Идентификатор кодека                     : XVID
Идентификатор кодека/Подсказка           : XviD
Продолжительность                        : 47 м.
Битрейт                                  : 1500 Кбит/сек
Ширина                                   : 720 пикселей
Высота                                   : 400 пикселей
Соотношение сторон                       : 16:9
Частота кадров                           : 25,000 кадров/сек
Цветовое пространство                    : YUV
Субдискретизация насыщенности            : 4:2:0
Битовая глубина                          : 8 бит
Тип развёртки                            : Прогрессивная
Метод сжатия                             : С потерями
Бит/(Пиксели*Кадры)                      : 0.208
Размер потока                            : 508 Мбайт (92%)
Библиотека кодирования                   : XviD 1.2.1 (UTC 2008-12-04)
Аудио
Идентификатор                            : 1
Формат                                   : MPEG Audio
Версия формата                           : Version 1
Профиль формата                          : Layer 3
Режим                                    : Joint stereo
Расширение режима                        : MS Stereo
Идентификатор кодека                     : 55
Идентификатор кодека/Подсказка           : MP3
Продолжительность                        : 47 м.
Вид битрейта                             : Постоянный
Битрейт                                  : 128 Кбит/сек
Каналы                                   : 2 канала
Частота                                  : 48,0 КГц
Метод сжатия                             : С потерями
Размер потока                            : 43,3 Мбайт (8%)
Выравнивание                             : Разделение по промежуткам
Продолжительность промежутка             : 40  мс. (1,00 видеокадр)
Время предзагрузки промежутка            : 500  мс.
Скриншоты:
Время раздачи: с 23:00 до 8:30
[Профиль] [ЛС]
Показать сообщения:    

Текущее время: Сегодня 01:21

Часовой пояс: GMT



Вы не можете начинать темы
Вы не можете отвечать на сообщения
Вы не можете редактировать свои сообщения
Вы не можете удалять свои сообщения
Вы не можете голосовать в опросах
Вы не можете прикреплять файлы к сообщениям
Вы не можете скачивать файлы