Уличный мусор / Street Trash (Джеймс М. Муро) [1987 г., ужасы, комедия, BDRip 720p] [AVO (Гранкин)]

 
Автор Сообщение

Bathory ®

Пол:

Стаж: 1 год 7 месяцев

Сообщений: 318



Награды: 3 (Подробнее)

Друг (Количество: 1) Girls (Количество: 1) За внесенный вклад в развитие сайта (Количество: 1)
Торрент-статистика

Создавать темы 10-Авг-2017 21:45

[Цитировать]

Уличный мусор / Street Trash- Информация о фильме
Название: Уличный мусор
Оригинальное название: Street Trash
Год выхода: 1987
Жанр: ужасы, комедия
Режиссер: Джеймс М. Муро
В ролях: Майк Лэки, Билл Чепил, Марк Сферразза, Джейн Аракава, Николь Поттер, Пэт Райан, Клеренс Джермон, Бернард Перлман, Мириам Цукер
О фильме:
Все началось с того, что один из торговцев спиртным выпустил в продажу коньяк «Гадюка». После чего с местными любителями крепких спиртных напитков стали происходить малоприятные вещи.

Страна: США
Студия: Street Trash Joint Venture
Продолжительность: 01:41:06
Перевод: Авторский (одноголосый закадровый) Евгений Гранкин
Файл
Кодек: AVC
Качество: BDRip 720p
Видео: 1280x720, 6487 kbps, 23,976 fps, 0,294 Bits/(Pixel*Frame)
Звук:
1. AC3, 48 kHz, 2 ch, 192 kbps - AVO (Гранкин)
2. AC3, 48 kHz, 6 ch, 448 kbps - Original (ENG)
Субтитры: Нет

MI

Общее
Unique ID : 244540751586198116839783141655724518670 (0xB7F8D5EA8E3121DE87E56D6195816D0E)
Complete name : F:\Street.Trash.1987.BDRip.720p.MegaPeer.mkv
Format : Matroska
Format version : Version 4 / Version 2
File size : 5,03 Гбайт
Duration : 1 ч. 41 м.
Overall bit rate : 7129 Кбит/сек
Encoded date : UTC 2017-08-10 20:54:03
Writing application : mkvmerge v14.0.0 ('Flow') 64bit
Writing library : libebml v1.3.4 + libmatroska v1.4.5
Attachments : a2c4e05aae511a40e871fb868c214b41.jpg
Видео
ID : 1
Format : AVC
Format/Info : Advanced Video Codec
Format profile : High@L4.1
Format settings, CABAC : Да
Format settings, RefFrames : 9 кадров
Codec ID : V_MPEG4/ISO/AVC
Duration : 1 ч. 41 м.
Bit rate : 6487 Кбит/сек
Width : 1280 пикселей
Height : 720 пикселей
Display aspect ratio : 16:9
Frame rate mode : Постоянный
Frame rate : 23,976 (24000/1001) кадра/сек
Color space : YUV
Chroma subsampling : 4:2:0
Bit depth : 8 бит
Scan type : Прогрессивная
Bits/(Pixel*Frame) : 0.294
Stream size : 4,58 Гбайт (91%)
Writing library : x264 core 152 r2851 ba24899
Encoding settings : cabac=1 / ref=9 / deblock=1:-2:-2 / analyse=0x3:0x113 / me=umh / subme=11 / psy=1 / psy_rd=1.05:0.12 / mixed_ref=1 / me_range=48 / chroma_me=1 / trellis=2 / 8x8dct=1 / cqm=0 / deadzone=21,11 / fast_pskip=0 / chroma_qp_offset=-3 / threads=12 / lookahead_threads=3 / sliced_threads=0 / nr=0 / decimate=0 / interlaced=0 / bluray_compat=0 / constrained_intra=0 / bframes=12 / b_pyramid=2 / b_adapt=2 / b_bias=0 / direct=1 / weightb=1 / open_gop=0 / weightp=2 / keyint=240 / keyint_min=23 / scenecut=0 / intra_refresh=0 / rc_lookahead=60 / rc=crf / mbtree=1 / crf=18.1 / qcomp=0.60 / qpmin=0 / qpmax=51 / qpstep=4 / vbv_maxrate=50000 / vbv_bufsize=62500 / crf_max=0.0 / nal_hrd=none / filler=0 / ip_ratio=1.40 / aq=2:1.00
Default : Да
Forced : Нет
Color range : Limited
Color primaries : BT.709
Transfer characteristics : BT.709
Matrix coefficients : BT.709
Аудио #1
ID : 2
Format : AC-3
Format/Info : Audio Coding 3
Format settings, Endianness : Big
Codec ID : A_AC3
Duration : 1 ч. 41 м.
Bit rate mode : Постоянный
Bit rate : 192 Кбит/сек
Channel(s) : 2 канала
Channel positions : Front: L R
Sampling rate : 48,0 КГц
Frame rate : 31,250 кадров/сек (1536 SPF)
Bit depth : 16 бит
Compression mode : С потерями
Stream size : 139 Мбайт (3%)
Language : Russian
Service kind : Complete Main
Default : Да
Forced : Нет
Аудио #2
ID : 3
Format : AC-3
Format/Info : Audio Coding 3
Format settings, Endianness : Big
Codec ID : A_AC3
Duration : 1 ч. 41 м.
Bit rate mode : Постоянный
Bit rate : 448 Кбит/сек
Channel(s) : 6 каналов
Channel positions : Front: L C R, Side: L R, LFE
Sampling rate : 48,0 КГц
Frame rate : 31,250 кадров/сек (1536 SPF)
Bit depth : 16 бит
Compression mode : С потерями
Stream size : 324 Мбайт (6%)
Language : English
Service kind : Complete Main
Default : Нет
Forced : Нет

Скриншоты

Релиз:
[Профиль] [ЛС]
Показать сообщения:    

Текущее время: Сегодня 02:56

Часовой пояс: GMT



Вы не можете начинать темы
Вы не можете отвечать на сообщения
Вы не можете редактировать свои сообщения
Вы не можете удалять свои сообщения
Вы не можете голосовать в опросах
Вы не можете прикреплять файлы к сообщениям
Вы не можете скачивать файлы