Улица поперек / Вертушка (Владимир Сутеев, Лев Атаманов) [1931, Анимация, DVDScreener]

 
Автор Сообщение

painkiller ®

Стаж: 2 года 3 месяца

Сообщений: 582



Награды: Нет

Торрент-статистика

Создавать темы 27-Авг-2014 19:34

[Цитировать]

Улица поперек (Вертушка)
Жанр: Анимация
Год выпуска: 1931
Продолжительность: 00:11:29
Режиссёр: Владимир Сутеев, Лев Атаманов
Описание: Информация о фильме в сетях очень скупая. Первый звуковой анимационный фильм. Агитация за соблюдение правил уличного движения. Другое название - "Вертушка".
Доп. информация:
Сценарист: Владимир Немоляев
Звукооператор: Э. Деруп
Композитор: Климентий Корчмарев
Интересные факты:

скрытый текст

Фильм был отобран для просмотра на Фестивале архивного кино, Белые Столбы (Россия), 2013г.
И далее в продолжение информации по Фестивалю:
Информация из интернета:Чешская сторона привезла на фестиваль чудом найденный документальный фильм «Гопак» (1931) классика советской анимации Михаила Цехановского, а также документальный фильм Владимира Ерофеева «Афганистан» (1928) и один из первых советских звуковых мультфильмов «Улица поперек".
Скриншот с названием фильма. Название фильма на чешском языке.

скрытый текст

Релиз:
Автор рипа: pmv
Исходный материал для рипа предоставил некто Андрей.
Семпл: http://multi-up.com/876932
Качество видео: DVDScreener
Формат видео: AVI
Видео: 720x544 (1.32:1), 25 fps, XviD build 50 ~1992 kbps avg, 0.20 bit/pixel
Аудио: 48 kHz, MPEG Layer 3, 1 ch, ~64.00 kbps avg

MediaInfo

Общее
Полное имя : H:\ФИЛЬМЫ С ФЕНИКСА\Ulica.poperek (Vertuchka)\Ulica.poperek (Vertuchka).avi
Формат : AVI
Формат/Информация : Audio Video Interleave
Размер файла : 170 Мбайт
Продолжительность : 11 м.
Общий поток : 2067 Кбит/сек
Программа кодирования : Lavf53.19.0
Библиотека кодирования : VirtualDub build 35340/release
Видео
Идентификатор : 0
Формат : MPEG-4 Visual
Профиль формата : Advanced Simple@L5
Параметр BVOP формата : 3
Параметр QPel формата : Нет
Параметр GMC формата : Без точки перехода
Параметр матрицы формата : Default (H.263)
Идентификатор кодека : XVID
Идентификатор кодека/Подсказка : XviD
Продолжительность : 11 м.
Битрейт : 1993 Кбит/сек
Ширина : 720 пикселей
Высота : 544 пикселя
Соотношение сторон : 4:3
Частота кадров : 25,000 кадров/сек
Цветовое пространство : YUV
Субдискретизация насыщенности : 4:2:0
Битовая глубина : 8 бит
Тип развёртки : Прогрессивная
Метод сжатия : С потерями
Бит/(Пиксели*Кадры) : 0.204
Размер потока : 164 Мбайт (96%)
Библиотека кодирования : XviD 1.2.1 (UTC 2008-12-04)
Аудио
Идентификатор : 1
Формат : MPEG Audio
Версия формата : Version 1
Профиль формата : Layer 3
Идентификатор кодека : 55
Идентификатор кодека/Подсказка : MP3
Продолжительность : 11 м.
Вид битрейта : Постоянный
Битрейт : 64,0 Кбит/сек
Каналы : 1 канал
Частота : 48,0 КГц
Метод сжатия : С потерями
Размер потока : 5,26 Мбайт (3%)
Выравнивание : Разделение по промежуткам
Продолжительность промежутка : 40 мс. (1,00 видеокадр)
Время предзагрузки промежутка : 500 мс.

Скриншоты


[Профиль] [ЛС]
Показать сообщения:    

Текущее время: Сегодня 12:11

Часовой пояс: GMT



Вы не можете начинать темы
Вы не можете отвечать на сообщения
Вы не можете редактировать свои сообщения
Вы не можете удалять свои сообщения
Вы не можете голосовать в опросах
Вы не можете прикреплять файлы к сообщениям
Вы не можете скачивать файлы