Укушенная / Bitten [S02] (2015) WEB-DL 1080p | LostFilm

 
Автор Сообщение

достали все ®

Пол:

Стаж: 1 год 8 месяцев

Сообщений: 6600



Награды: 12 (Подробнее)

Top Releaser 4 (Количество: 1) Mega Seeder 3 (Количество: 1) Top Releaser 3 (Количество: 1)
Торрент-статистика

Создавать темы 15-Июл-2016 03:51

[Цитировать]

Название: Укушенная
Оригинальное название: Bitten
Год выхода: 2015
Страна: Канада
Студия: Entertainment One, Hoodwink Entertainment, No Equal Entertainment
Продолжительность: 10 x ~ 45:00
Жанр: ужасы, фэнтези, драма, детектив, ...
Режиссер: Лора Вандервурт, Грейстон Холт, Грег Брайк, Пол Грин, Стив Ланд, Майкл Ксавьер, Дженелл Уильямс, Натали Браун, Майкл Лакетт, Фиона Хайет, ...
Перевод: Профессиональный (многоголосный, закадровый) LostFilm
О фильме: История о Елене, единственной в мире женщине-оборотне, которая, спустя годы после того, как ее укусили, работает фотографом в Торонто и старается сохранить в тайне правду о себе…

Кодек: MPEG-4 AVC
Качество: WEB-DL 1080p
Видео: 1920x1080 , ~5000 kbps, 23,976 fps
Аудио #1: AC-3, 2 ch, 224 kbps (Rus) - LostFilm
Аудио #2: AC-3, 6 ch, 384 kbps (Eng)
Субтитры: Английские (SDH)

MediaInfo

Общее
Уникальный идентификатор : 229270296340619632766123425577840442695 (0xAC7BDA582F4FED5C85B865239E987D47)
Полное имя : Bitten E01 S02 2015 WEB-DL 1080p LostFilm.mkv
Формат : Matroska
Версия формата : Version 2
Размер файла : 1,75 Гбайт
Продолжительность : 44 м.
Общий поток : 5658 Кбит/сек
Дата кодирования : UTC 2016-07-07 19:19:20
Программа кодирования : mkvmerge v4.0.0 ('The Stars were mine') сборка от Jun 6 2010 16:18:42
Библиотека кодирования : libebml v1.0.0 + libmatroska v1.0.0
Видео
Идентификатор : 1
Формат : AVC
Формат/Информация : Advanced Video Codec
Профиль формата : High@L4
Параметр CABAC формата : Да
Параметр ReFrames формата : 4 кадра
Идентификатор кодека : V_MPEG4/ISO/AVC
Продолжительность : 44 м.
Битрейт : 4937 Кбит/сек
Ширина : 1920 пикселей
Высота : 1080 пикселей
Соотношение сторон : 16:9
Режим частоты кадров : Постоянный
Частота кадров : 23,976 кадра/сек
Цветовое пространство : YUV
Субдискретизация насыщенности : 4:2:0
Битовая глубина : 8 бит
Тип развёртки : Прогрессивная
Бит/(Пиксели*Кадры) : 0.099
Размер потока : 1,53 Гбайт (87%)
Язык : English
Default : Нет
Forced : Нет
Цветовой диапазон : Limited
Основные цвета : BT.709
Характеристики трансфера : BT.709
Коэффициенты матрицы : BT.709
Аудио #1
Идентификатор : 2
Формат : AC-3
Формат/Информация : Audio Coding 3
Расширение режима : CM (complete main)
Параметр Endianness формата : Big
Идентификатор кодека : A_AC3
Продолжительность : 44 м.
Вид битрейта : Постоянный
Битрейт : 224 Кбит/сек
Каналы : 2 канала
Расположение каналов : Front: L R
Частота : 48,0 КГц
Частота кадров : 31,250 кадров/сек (1536 spf)
Метод сжатия : С потерями
Размер потока : 70,9 Мбайт (4%)
Заголовок : LostFilm
Язык : Russian
Default : Нет
Forced : Нет
Аудио #2
Идентификатор : 3
Формат : AC-3
Формат/Информация : Audio Coding 3
Расширение режима : CM (complete main)
Параметр Endianness формата : Big
Идентификатор кодека : A_AC3
Продолжительность : 44 м.
Вид битрейта : Постоянный
Битрейт : 384 Кбит/сек
Каналы : 6 каналов
Расположение каналов : Front: L C R, Side: L R, LFE
Частота : 48,0 КГц
Частота кадров : 31,250 кадров/сек (1536 spf)
Метод сжатия : С потерями
Размер потока : 122 Мбайт (7%)
Язык : English
Default : Нет
Forced : Нет
Текст
Идентификатор : 4
Формат : UTF-8
Идентификатор кодека : S_TEXT/UTF8
Идентификатор кодека/Информация : UTF-8 Plain Text
Заголовок : SDH
Язык : English
Default : Нет
Forced : Нет

[Профиль] [ЛС]
Кто просматривает тему:

Показать сообщения:    

Текущее время: Сегодня 01:27

Часовой пояс: GMT



Вы не можете начинать темы
Вы не можете отвечать на сообщения
Вы не можете редактировать свои сообщения
Вы не можете удалять свои сообщения
Вы не можете голосовать в опросах
Вы не можете прикреплять файлы к сообщениям
Вы не можете скачивать файлы