Укрощение строптивой (1961) DVDRip [H.264]

 
Автор Сообщение

sergej644 ®

Пол:

Стаж: 4 года 11 месяцев

Сообщений: 6035

Откуда: Soviet Union



Награды: Нет

Торрент-статистика

Создавать темы 16-Авг-2014 22:38

[Цитировать]

-Укрощение строптивой (1961) DVDRip [H.264]- Год выпуска: 1961
Жанр: Комедия
Описание фильма:
Театрализованный фильм по сюжету пьесы Вильяма Шекспира.
Множество претендентов стоит в "очереди" на руку младшей скромницы Бианки, но всех огорчает одно - по древней традиции, свадьба Бианки возможна только после свадьбы её старшей сестры - Катарины, сущего "дьявола в юбке", красивая, но строптивая и колкая на язык, она повергает в ужас мужчин. Но вскоре находится храбрец способный укротить строптивую.
Режиссер: Сергей Колосов
Актеры: Людмила Касаткина — Катарина, Андрей Попов — Петручио, Владимир Благообразов — Баптиста, Ольга Красина — Бианка, Владимир Зельдин — Люченцио, Антоний Ходурский — Гремио, Марк Перцовский — Гортензио, Сергей Кулагин — Грумио, Владимир Сошальский — Транио, Лев Шабарин — Бионделло, Николай Неронов — Винченцио, Николай Сергеев — старый учитель, Рафаил Ракитин — Куртис, Павел Винник — служка в церкви, Пётр Вишняков — епископ, Юрий Никулин — руководитель церковного хора мальчиков, Николай Пастухов — повар, Нина Сазонова — кормилица
Продолжительность: 01:22:39
Качество видео: DVDRip [H.264]

Видеокодек: MPEG-4 AVC/H.264
Битрейт видео: ~1942 kbps
Размер кадра: 704x528
Аудиокодек: AC3 5.1
Битрейт аудио: 448 kbps

Доп. информация:

Фильм начинается документальным эпизодом — заседанием труппы театра, на котором со вступительным словом выступает Алексей Попов. Этот фрагмент, я удалил.

MediaInfo:

Общее
Уникальный идентификатор : 236743576029725811732806313063238953484 (0xB21B277B12B6E06484EA94B5A3ED6A0C)
Полное имя : J:\Комедии\Советские (русские)\Укрощение строптивой\Укрощения строптивой.mkv
Формат : Matroska
Версия формата : Version 2
Размер файла : 1,41 Гбайт
Продолжительность : 1 ч. 22 м.
Общий поток : 2438 Кбит/сек
Дата кодирования : UTC 2014-08-16 19:11:00
Программа кодирования : mkvmerge v3.3.0 ('Language') built on Mar 24 2010 14:59:24
Библиотека кодирования : libebml v0.8.0 + libmatroska v0.9.0
Видео
Идентификатор : 1
Формат : AVC
Формат/Информация : Advanced Video Codec
Профиль формата : [url=mailto:Main@L5.1]Main@L5.1[/url]
Параметр CABAC формата : Да
Параметр ReFrames формата : 1 кадр
Идентификатор кодека : V_MPEG4/ISO/AVC
Продолжительность : 1 ч. 22 м.
Битрейт : 1942 Кбит/сек
Ширина : 704 пикселя
Высота : 528 пикселей
Соотношение сторон : 4:3
Режим частоты кадров : Постоянный
Частота кадров : 25,000 кадров/сек
Цветовое пространство : YUV
Субдискретизация насыщенности : 4:2:0
Битовая глубина : 8 бит
Тип развёртки : Прогрессивная
Бит/(Пиксели*Кадры) : 0.209
Размер потока : 1,12 Гбайт (80%)
Заголовок : Укрощение строптивой (Topmost)
Язык : Russian
Default : Нет
Forced : Нет
Аудио
Идентификатор : 2
Формат : AC-3
Формат/Информация : Audio Coding 3
Расширение режима : CM (complete main)
Параметр Endianness формата : Big
Идентификатор кодека : A_AC3
Продолжительность : 1 ч. 22 м.
Вид битрейта : Постоянный
Битрейт : 448 Кбит/сек
Каналы : 6 каналов
Расположение каналов : Front: L C R, Side: L R, LFE
Частота : 48,0 КГц
Битовая глубина : 16 бит
Метод сжатия : С потерями
Размер потока : 265 Мбайт (18%)
Заголовок : 48.KHz, 448 kbps, 6 ch
Язык : Russian
Default : Нет
Forced : Нет
Скриншоты:
Время раздачи: 24/7 до 5 скачавших
[Профиль] [ЛС]

Создавать темы 06-Авг-2015 22:03 (спустя 11 месяцев 20 дней)

Топик был перенесен из форума Кино СССР в форум Кино СССР
sergej644
 
Показать сообщения:    

Текущее время: Сегодня 02:46

Часовой пояс: GMT



Вы не можете начинать темы
Вы не можете отвечать на сообщения
Вы не можете редактировать свои сообщения
Вы не можете удалять свои сообщения
Вы не можете голосовать в опросах
Вы не можете прикреплять файлы к сообщениям
Вы не можете скачивать файлы