Укради мою жену / Life of Crime (Дэниэл Шехтер / Daniel Schechter) [2013, США, криминал, драма, комедия, HDRip] Dub R5

 
Автор Сообщение

TorrentFilm ®

Пол:

Стаж: 2 года

Сообщений: 7741



Награды: Нет

Торрент-статистика

Создавать темы 28-Дек-2014 00:30

[Цитировать]

Укради мою жену / Life of Crime
Страна: США
Жанр: криминал, драма, комедия
Год выпуска: 2014
Продолжительность: 01:40:48
Перевод: Профессиональный (дублированый) [Лицензия]
Оригинальная аудиодорожка: нет
Cубтитры: нет
Режиссер: Дэниэл Шехтер / Daniel Schechter
В ролях: Дженнифер Энистон, Мос Деф, Айла Фишер, Уилл Форте, Марк Бун Джуниор, Тим Роббинс, Джон Хоукс, Клеа Льюис, Чарли Тахэн, Кевин Корригэн.
Описание: Когда двое непутевых преступников похитили жену коррумпированного застройщика, они совсем не ожидали, что супруг не захочет вызволять благоверную. Вместо того чтобы заплатить преступникам выкуп, он скрывается на Багамах с любовницей. В результате сюжет принимает неожиданный поворот…
Сэмпл
Качество: HDRip
Контейнер: AVI
Видео: 688x288 (2.39:1), 23.976 fps, XviD build 73 ~894 kbps avg, 0.19 bit/pixel
Аудио: 48 kHz, MPEG Layer 3, 2 ch, ~128.00 kbps avg

MI

General
Complete name : C:\Users\Вячеслав\Downloads\Ukradi_moy_jany_2014_HDRip.avi
Format : AVI
Format/Info : Audio Video Interleave
File size : 743 MiB
Duration : 1h 40mn
Overall bit rate : 1 030 Kbps
Writing application : VirtualDubMod 1.5.10.3 | www.virtualdub-fr.org || (build 2550/release)
Writing library : VirtualDubMod build 2550/release
Video
ID : 0
Format : MPEG-4 Visual
Format profile : Advanced Simple@L5
Format settings, BVOP : 1
Format settings, QPel : No
Format settings, GMC : No warppoints
Format settings, Matrix : Custom
Codec ID : XVID
Codec ID/Hint : XviD
Duration : 1h 40mn
Bit rate : 895 Kbps
Width : 688 pixels
Height : 288 pixels
Display aspect ratio : 2.40:1
Frame rate : 23.976 fps
Color space : YUV
Chroma subsampling : 4:2:0
Bit depth : 8 bits
Scan type : Progressive
Compression mode : Lossy
Bits/(Pixel*Frame) : 0.188
Stream size : 645 MiB (87%)
Writing library : XviD 73
Audio
ID : 1
Format : MPEG Audio
Format version : Version 1
Format profile : Layer 3
Codec ID : 55
Codec ID/Hint : MP3
Duration : 1h 39mn
Bit rate mode : Constant
Bit rate : 128 Kbps
Channel(s) : 2 channels
Sampling rate : 48.0 KHz
Compression mode : Lossy
Stream size : 91.1 MiB (12%)
Alignment : Aligned on interleaves
Interleave, duration : 42 ms (1.01 video frame)
Interleave, preload duration : 504 ms
Writing library : LAME3.99r
Encoding settings : -m s -V 4 -q 2 -lowpass 17 -b 128

Скриншоты

[Профиль] [ЛС]
Кто просматривает тему:

Форум Тема Автор Размер
Сhanson (Шансон) [CD] Сборная союза - У бога рай не украдешь - 2014, FLAC (image+.cue), lossless sergej644 549 MB
Приключения, Квесты, Логические Наказанные талантом 2: Украденные награды Коллекционное издание (2016) PC достали все 1.2 GB
Фильмы 2011 года Украденная невинность / My Baby Is Missing (Нилл Фернли / Neill Fearnley) [2007, Канада, США, триллер, драма, криминал, HDTVRip] MVO TorrentFilm 1.42 GB
Отечественные cериалы Украденная свадьба [01-04 из 04] (2015) DVB BOSS 3.42 GB
Отечественные cериалы Украденная свадьба [01-04 из 04] (2015) SATRip BOSS 1.94 GB
Отечественные cериалы Украденное счастье [01-02 из 02] (2016) HDTVRip достали все 2.74 GB
Приключения, Квесты, Логические Украденные души: Кровавый ритуал [Коллекционное издание] (2015) PC достали все 1.54 GB
Документальные HD Украденные Коллекции. По Следам "Черных Антикваров" (Элла Тухарели) [2015, Документальный, HDTV 720p] TorrentFilm 1.31 GB
Показать сообщения:    

Текущее время: Сегодня 18:57

Часовой пояс: GMT



Вы не можете начинать темы
Вы не можете отвечать на сообщения
Вы не можете редактировать свои сообщения
Вы не можете удалять свои сообщения
Вы не можете голосовать в опросах
Вы не можете прикреплять файлы к сообщениям
Вы не можете скачивать файлы