Украденные Коллекции. По Следам "Черных Антикваров" (Элла Тухарели) [2015, Документальный, HDTV 720p]

 
Автор Сообщение

TorrentFilm ®

Пол:

Стаж: 1 год 11 месяцев

Сообщений: 7741



Награды: Нет

Торрент-статистика

Создавать темы 13-Апр-2015 00:03

[Цитировать]

Украденные Коллекции. По Следам "Черных Антикваров"- Год выпуска: 2015
Страна: Россия
Канал: Россия HD
Жанр: Документальный
Продолжительность: 0:44:47
Автор: Иван Бармин
Режиссер: Элла Тухарели-Описание: Кто стоял за громкими ограблениями музеев в Ираке и Египте? Как этрусские вазы из нелегальных раскопок в Италии оказались в залах респектабельного американского музея? Зачем британский аристократ купил сокровища озера Балатон, известные своей "кровавой репутацией", и что заставило коллекционера спустя десятилетия избавиться от бесценного клада? Каким образом подпольный рынок культурных ценностей финансирует деятельность террористов из Аль-Каиды и Исламского государства?-Автор рипа: lrn
Автор записи: Generalfilm
Сэмпл: sendfile-Тип релиза: HDTV 720p
Контейнер: MKV
Видео: 1280x720 (16:9), 25,000 fps, H264, ~4000 kbps avg, ~0.174 bit/pixel
Аудио: 48 kHz, AC3 Dolby Digital, 2/0 (L,R) ch, ~192.00 kbps avg-

MediaInfo

GeneralUnique ID : 229137695718093098751229585154776868359 (0xAC6250A107E98417AF152B0690C9A607)Complete name : E:\uTorrent.Temp\Temp\Ukradennie.Kollektsii.Po.Sledam.Chernih.Antikvarov.2015.HDTV.720p.x264-lrn.mkvFormat : MatroskaFormat version : Version 4 / Version 2File size : 1.31 GiBDuration : 44mn 47sOverall bit rate : 4 193 KbpsMovie name : Ukradennie.Kollektsii.Po.Sledam.Chernih.Antikvarov.2015.HDTV.720p.x264-lrnEncoded date : UTC 2010-02-22 21:41:31Writing application : mkvmerge v5.9.0 ('On The Loose') built on Dec 9 2012 15:37:01Writing library : libebml v1.3.0 + libmatroska v1.4.0DURATION : 00:44:47.440000000NUMBER_OF_FRAMES : 67186NUMBER_OF_BYTES : 1343377144_STATISTICS_WRITING_APP : mkvmerge v7.0.0 ('Where We Going') 32bit built on Jun 9 2014 15:08:34_STATISTICS_WRITING_DATE_UT : 2015-04-02 18:54:20_STATISTICS_TAGS : BPS DURATION NUMBER_OF_FRAMES NUMBER_OF_BYTES
VideoID : 1Format : AVCFormat/Info : Advanced Video CodecFormat profile : High@L4.1Format settings, CABAC : YesFormat settings, ReFrames : 8 framesCodec ID : V_MPEG4/ISO/AVCDuration : 44mn 47sBit rate : 4 000 KbpsWidth : 1 280 pixelsHeight : 720 pixelsDisplay aspect ratio : 16:9Frame rate mode : ConstantFrame rate : 25.000 fpsColor space : YUVChroma subsampling : 4:2:0Bit depth : 8 bitsScan type : ProgressiveBits/(Pixel*Frame) : 0.174Stream size : 1.23 GiB (93%)Writing library : x264 core 142 r2431 ac76440Encoding settings : cabac=1 / ref=8 / deblock=1:-3:-3 / analyse=0x3:0x133 / me=umh / subme=9 / psy=1 / psy_rd=1.00:0.00 / mixed_ref=1 / me_range=32 / chroma_me=1 / trellis=2 / 8x8dct=1 / cqm=0 / deadzone=21,11 / fast_pskip=1 / chroma_qp_offset=-2 / threads=12 / lookahead_threads=2 / sliced_threads=0 / nr=0 / decimate=1 / interlaced=0 / bluray_compat=0 / constrained_intra=0 / bframes=8 / b_pyramid=2 / b_adapt=2 / b_bias=0 / direct=3 / weightb=1 / open_gop=0 / weightp=2 / keyint=250 / keyint_min=25 / scenecut=40 / intra_refresh=0 / rc_lookahead=50 / rc=2pass / mbtree=1 / bitrate=4000 / ratetol=1.0 / qcomp=0.60 / qpmin=0 / qpmax=69 / qpstep=4 / cplxblur=20.0 / qblur=0.5 / vbv_maxrate=62500 / vbv_bufsize=78125 / nal_hrd=none / filler=0 / ip_ratio=1.40 / aq=1:1.00Default : YesForced : No
AudioID : 2Format : AC-3Format/Info : Audio Coding 3Mode extension : CM (complete main)Format settings, Endianness : BigCodec ID : A_AC3Duration : 44mn 47sBit rate mode : ConstantBit rate : 192 KbpsChannel(s) : 2 channelsChannel positions : Front: L RSampling rate : 48.0 KHzBit depth : 16 bitsCompression mode : LossyStream size : 61.5 MiB (5%)Language : RussianDefault : YesForced : No

x264 log

raw [info]: 1280x720p 1:1 @ 25/1 fps (cfr)x264 [info]: using SAR=1/1x264 [info]: using cpu capabilities: MMX2 SSE2Fast SSSE3 SSE4.2 AVXx264 [info]: profile High, level 4.1x264 [info]: frame I:579 Avg QP:12.05 size:132254x264 [info]: frame P:17684 Avg QP:15.24 size: 45400x264 [info]: frame B:48923 Avg QP:18.71 size: 9483x264 [info]: consecutive B-frames: 4.7% 4.9% 8.6% 39.1% 18.8% 13.6% 3.5% 3.9% 2.8%x264 [info]: mb I I16..4: 7.5% 60.7% 31.9%x264 [info]: mb P I16..4: 2.4% 13.1% 2.4% P16..4: 35.3% 19.3% 13.9% 1.1% 0.4% skip:11.9%x264 [info]: mb B I16..4: 0.4% 1.3% 0.3% B16..8: 31.2% 10.1% 2.6% direct: 6.1% skip:47.9% L0:39.8% L1:47.9% BI:12.3%x264 [info]: 8x8 transform intra:70.3% inter:50.8%x264 [info]: direct mvs spatial:97.7% temporal:2.3%x264 [info]: coded y,uvDC,uvAC intra: 69.9% 57.3% 37.8% inter: 20.8% 18.8% 2.8%x264 [info]: i16 v,h,dc,p: 45% 26% 5% 24%x264 [info]: i8 v,h,dc,ddl,ddr,vr,hd,vl,hu: 20% 19% 15% 5% 7% 8% 9% 8% 10%x264 [info]: i4 v,h,dc,ddl,ddr,vr,hd,vl,hu: 21% 21% 9% 6% 9% 9% 9% 7% 9%x264 [info]: i8c dc,h,v,p: 51% 24% 18% 7%x264 [info]: Weighted P-Frames: Y:3.2% UV:1.2%x264 [info]: ref P L0: 61.8% 10.1% 13.9% 4.5% 3.4% 2.4% 2.2% 1.5% 0.2% 0.0%x264 [info]: ref B L0: 79.7% 10.8% 4.4% 2.1% 1.6% 0.9% 0.5%x264 [info]: ref B L1: 93.2% 6.8%x264 [info]: kb/s:3998.98encoded 67186 frames, 16.40 fps, 3998.98 kb/s

Скриншоты

-
[Профиль] [ЛС]
Показать сообщения:    

Текущее время: Сегодня 07:06

Часовой пояс: GMT



Вы не можете начинать темы
Вы не можете отвечать на сообщения
Вы не можете редактировать свои сообщения
Вы не можете удалять свои сообщения
Вы не можете голосовать в опросах
Вы не можете прикреплять файлы к сообщениям
Вы не можете скачивать файлы