Украденная невинность / My Baby Is Missing (Нилл Фернли / Neill Fearnley) [2007, Канада, США, триллер, драма, криминал, HDTVRip] MVO

 
Автор Сообщение

TorrentFilm ®

Пол:

Стаж: 2 года

Сообщений: 7741



Награды: Нет

Торрент-статистика

Создавать темы 08-Фев-2015 00:01

[Цитировать]

Украденная невинность / My Baby Is Missing
Страна: Канада, США
Жанр: триллер, драма, криминал
Год выпуска: 2007
Продолжительность: 01:28:31
Перевод: Профессиональный (многоголосый закадровый)
Cубтитры: нет
Режиссер: Нилл Фернли / Neill Fearnley
В ролях: Джина Филипс, Уоррен Кристи, Элли Харви, Джей Бразо, Анна Галвин, Ванда Кэннон, Мэттью Уолкер, Том МакБет, Лиэнн Адачи, Питер Брайант
Описание: Беременная Дженна Дэвис чрезмерно трудолюбивый сотрудник рекламного агентства, которую незадолго до родов повышают до вице-президента. Это вызывает у Дженны сильный стресс и у нее поднимается давление. По совету врача она вызывает медсестру, та дает ей какие-то таблетки, от которых Дженна засыпает. Когда она просыпается в больнице, то узнает, что она родила уже мертвую девочку, которую случайно кремировали…
Доп. информация: За запись исходника спасибо Romanok8691
Релиз
Сэмпл: https://yadi.sk/i/yiBY5M4MeWsi4
Качество видео: HDTVRip
Формат видео: AVI
Видео: 720x400 (1.80:1), 25 fps, XviD build 50 ~2093 kbps avg, 0.29 bit/pixel
Аудио: 48 kHz, AC3 Dolby Digital, 2/0 (L,R) ch, ~192 kbps

MediaInfo

Украденная невинность - My Baby Is Missing [by Edich2].avi
Format : AVI
Format/Info : Audio Video Interleave
File size : 1.42 GiB
Duration : 1h 28mn
Overall bit rate : 2 296 Kbps
Movie name : Украденная невинность - My Baby Is Missing [by Edich2]
Director : by Edich2
Writing application : VirtualDubMod 1.5.10.3 | www.virtualdub-fr.org || (build 2550/release)
Comment : RuTracker.org
Video
ID : 0
Format : MPEG-4 Visual
Format profile : Advanced Simple@L5
Format settings, BVOP : 1
Format settings, QPel : No
Format settings, GMC : No warppoints
Format settings, Matrix : Default (MPEG)
Codec ID : XVID
Codec ID/Hint : XviD
Duration : 1h 28mn
Bit rate : 2 094 Kbps
Width : 720 pixels
Height : 400 pixels
Display aspect ratio : 16:9
Frame rate : 25.000 fps
Color space : YUV
Chroma subsampling : 4:2:0
Bit depth : 8 bits
Scan type : Progressive
Compression mode : Lossy
Bits/(Pixel*Frame) : 0.291
Stream size : 1.29 GiB (91%)
Writing library : XviD 1.2.1 (UTC 2008-12-04)
Audio
ID : 1
Format : AC-3
Format/Info : Audio Coding 3
Mode extension : CM (complete main)
Format settings, Endianness : Big
Codec ID : 2000
Duration : 1h 28mn
Bit rate mode : Constant
Bit rate : 192 Kbps
Channel(s) : 2 channels
Channel positions : Front: L R
Sampling rate : 48.0 KHz
Bit depth : 16 bits
Compression mode : Lossy
Stream size : 122 MiB (8%)
Alignment : Split accross interleaves
Interleave, duration : 40 ms (1.00 video frame)
Interleave, preload duration : 500 ms

Скриншоты


[Профиль] [ЛС]

Создавать темы 06-Авг-2015 22:47 (спустя 5 месяцев 26 дней)

Топик был перенесен из форума Фильмы до 2014 года в форум Фильмы до 2012 года
sergej644
 
Показать сообщения:    

Текущее время: Сегодня 08:28

Часовой пояс: GMT



Вы не можете начинать темы
Вы не можете отвечать на сообщения
Вы не можете редактировать свои сообщения
Вы не можете удалять свои сообщения
Вы не можете голосовать в опросах
Вы не можете прикреплять файлы к сообщениям
Вы не можете скачивать файлы