Узел дьявола / Devil's Knot (2013) BDRip-AVC

 
Автор Сообщение

Russian Mafia ®

Пол:

Стаж: 1 год 8 месяцев

Сообщений: 4252



Награды: 10 (Подробнее)

Mega Seeder 5 (Количество: 1) Mega Seeder 2 (Количество: 1) Top Releaser 5 (Количество: 1)
Торрент-статистика

Создавать темы 20-Апр-2015 12:37

[Цитировать]

Узел дьявола
| Devil's Knot |

Информация о фильме
Название: Узел дьявола
Оригинальное название: Devil's Knot
Год выхода: 2013
Жанр: драма, триллер, криминал, экранизация
Режиссер: Атом Эгоян
В ролях: Колин Фёрт, Риз Уизерспун, Дэйн ДеХаан, Мирей Инос, Брюс Гринвуд, Элиас Котеас, Стивен Мойер, Алессандро Нивола, Эми Райан, Кевин Дюран
О фильме:
Небольшой американский городок потрясен зверским убийством трех детей. Трех подростков обвиняют в этом злодеянии, всего лишь на том основании, что они носят длинные волосы, черную одежду и слушают «сатанинскую» музыку. Только один человек в городе встает на их защиту – адвокат Рон Лакс. Он всеми силами борется против предубеждений и пытается спасти три невинные жизни.

Страна: США
Студия: Worldview Entertainment, Rocket Science VFX
Продолжительность: 01:54:14
Перевод: Профессиональный двухголосый, авторский
Файл
Кодек: h.264
Качество: BDRip-AVC
Видео: 1565 Кбит/с, 1024x576, 23.976 кадр/с
Звук:
• №1: Русский (AC3, 6 ch, 384 Кбит/с) Професиональный двухголосый
• №2: Русский (AC3, 6 ch, 384 Кбит/с) Авторский одноголосый [Сергей Визгунов]
• №3: Английский (AC3, 6 ch, 384 Кбит/с)
Субтитры: Русские, английские

MediaInfo

------------------------------------------------------------------------------------------------------
x264 [info]: frame I:1019 Avg QP:15.92 size: 87705
x264 [info]: frame P:34626 Avg QP:19.23 size: 19510
x264 [info]: frame B:128688 Avg QP:19.39 size: 4579
x264 [info]: consecutive B-frames: 1.2% 1.4% 10.4% 20.6% 17.7% 37.2% 5.3% 2.7% 1.4% 0.6% 0.8% 0.6%
------------------------------------------------------------------------------------------------------
Полное имя : Devils.Knot.2013.x264.BDRip-AVC.0ptimus.mkv
Формат : Matroska
Версия формата : Version 2
Размер файла : 2,18 Гбайт
Продолжительность : 1 ч. 54 м.
Общий поток : 2735 Кбит/сек
Название фильма : Узел дьявола | Devil's Knot [2013] -= BDRip (AVC) by 0ptimus =-
Дата кодирования : UTC 2014-10-28 09:56:06
Программа кодирования : mkvmerge v6.6.0 ('The Edge Of The In Between') built on Dec 1 2013 17:55:00
Библиотека кодирования : libebml v1.3.0 + libmatroska v1.4.1
Видео
Идентификатор : 1
Формат : AVC
Формат/Информация : Advanced Video Codec
Профиль формата : High@L4.1
Параметр CABAC формата : Да
Параметр ReFrames формата : 8 кадров
Идентификатор кодека : V_MPEG4/ISO/AVC
Продолжительность : 1 ч. 54 м.
Битрейт : 1565 Кбит/сек
Ширина : 1024 пикселя
Высота : 576 пикселей
Соотношение сторон : 16:9
Режим частоты кадров : Постоянный
Частота кадров : 23,976 кадра/сек
Цветовое пространство : YUV
Субдискретизация насыщенности : 4:2:0
Битовая глубина : 8 бит
Тип развёртки : Прогрессивная
Бит/(Пиксели*Кадры) : 0.111
Размер потока : 1,22 Гбайт (56%)
Заголовок : Rip by 0ptimus
Библиотека кодирования : x264 core 133 r2334 a3ac64b
Настройки программы : cabac=1 / ref=8 / deblock=1:-3:-3 / analyse=0x3:0x113 / me=umh / subme=11 / psy=1 / psy_rd=1.00:0.25 / mixed_ref=1 / me_range=32 / chroma_me=1 / trellis=2 / 8x8dct=1 / cqm=0 / deadzone=21,11 / fast_pskip=0 / chroma_qp_offset=-4 / threads=3 / lookahead_threads=1 / sliced_threads=0 / nr=0 / decimate=0 / interlaced=0 / bluray_compat=0 / constrained_intra=0 / bframes=11 / b_pyramid=2 / b_adapt=2 / b_bias=0 / direct=3 / weightb=1 / open_gop=0 / weightp=2 / keyint=240 / keyint_min=23 / scenecut=40 / intra_refresh=0 / rc_lookahead=40 / rc=2pass / mbtree=0 / bitrate=1565 / ratetol=1.0 / qcomp=0.60 / qpmin=0 / qpmax=69 / qpstep=4 / cplxblur=20.0 / qblur=0.5 / vbv_maxrate=50000 / vbv_bufsize=50000 / nal_hrd=none / ip_ratio=1.40 / pb_ratio=1.30 / aq=1:1.00
Язык : English
Default : Да
Forced : Да
Аудио #1
Идентификатор : 2
Формат : AC-3
Формат/Информация : Audio Coding 3
Расширение режима : CM (complete main)
Параметр Endianness формата : Big
Идентификатор кодека : A_AC3
Продолжительность : 1 ч. 54 м.
Вид битрейта : Постоянный
Битрейт : 384 Кбит/сек
Каналы : 6 каналов
Расположение каналов : Front: L C R, Side: L R, LFE
Частота : 48,0 КГц
Битовая глубина : 16 бит
Метод сжатия : С потерями
Размер потока : 314 Мбайт (14%)
Заголовок : Двухголосый AC3 5.1 @ 384 kbps
Язык : Russian
Default : Да
Forced : Да
Аудио #2
Идентификатор : 3
Формат : AC-3
Формат/Информация : Audio Coding 3
Расширение режима : CM (complete main)
Параметр Endianness формата : Big
Идентификатор кодека : A_AC3
Продолжительность : 1 ч. 54 м.
Вид битрейта : Постоянный
Битрейт : 384 Кбит/сек
Каналы : 6 каналов
Расположение каналов : Front: L C R, Side: L R, LFE
Частота : 48,0 КГц
Битовая глубина : 16 бит
Метод сжатия : С потерями
Размер потока : 314 Мбайт (14%)
Заголовок : Авторский [Сергей Визгунов] AC3 5.1 @ 384 kbps
Язык : Russian
Default : Нет
Forced : Нет
Аудио #3
Идентификатор : 4
Формат : AC-3
Формат/Информация : Audio Coding 3
Расширение режима : CM (complete main)
Параметр Endianness формата : Big
Идентификатор кодека : A_AC3
Продолжительность : 1 ч. 54 м.
Вид битрейта : Постоянный
Битрейт : 384 Кбит/сек
Каналы : 6 каналов
Расположение каналов : Front: L C R, Side: L R, LFE
Частота : 48,0 КГц
Битовая глубина : 16 бит
Метод сжатия : С потерями
Размер потока : 314 Мбайт (14%)
Заголовок : AC3 5.1 @ 384 kbps
Язык : English
Default : Нет
Forced : Нет
Текст #1
Идентификатор : 5
Формат : UTF-8
Идентификатор кодека : S_TEXT/UTF8
Идентификатор кодека/Информация : UTF-8 Plain Text
Язык : Russian
Default : Нет
Forced : Нет
Текст #2
Идентификатор : 6
Формат : UTF-8
Идентификатор кодека : S_TEXT/UTF8
Идентификатор кодека/Информация : UTF-8 Plain Text
Язык : English
Default : Нет
Forced : Нет
Меню
00:00:00.000 : en:Chapter 0
00:08:30.676 : en:Chapter 0
00:18:31.609 : en:Chapter 0
00:28:47.016 : en:Chapter 0
00:39:43.255 : en:Chapter 0
00:47:33.851 : en:Chapter 0
00:55:14.394 : en:Chapter 0
01:05:13.075 : en:Chapter 0
01:15:08.003 : en:Chapter 0
01:25:55.859 : en:Chapter 0
01:39:17.326 : en:Chapter 0
01:47:54.301 : en:Chapter 0
01:54:13.054 : en:Chapter 0

Скриншоты



Релиз от:
[Профиль] [ЛС]

Создавать темы 06-Авг-2015 22:38 (спустя 3 месяца 16 дней)

Топик был перенесен из форума Фильмы до 2014 года в форум Фильмы 2013 года
sergej644
 
Кто просматривает тему:

Показать сообщения:    

Текущее время: Сегодня 04:47

Часовой пояс: GMT



Вы не можете начинать темы
Вы не можете отвечать на сообщения
Вы не можете редактировать свои сообщения
Вы не можете удалять свои сообщения
Вы не можете голосовать в опросах
Вы не можете прикреплять файлы к сообщениям
Вы не можете скачивать файлы