Узеир Гаджибеков, аккорды долгой жизни (Анар Рзаев) [1981, Драма, биография, TVRip]

 
Автор Сообщение

reversefile ®

Пол:

Стаж: 4 года 5 месяцев

Сообщений: 842

Откуда: ReverseFile.org



Награды: Нет

Торрент-статистика

Создавать темы 11-Авг-2014 06:25

[Цитировать]

Узеир Гаджибеков, аккорды долгой жизни
Жанр: Драма, биография
Год выпуска: 1981
Продолжительность: 2 серии (01:26:51 + 01:15:05)

Режиссёр: Анар Рзаев
В ролях: Гусейнага Атакишиев, Ялчин Эфендиев, Тофик Мирзоев, Гамида Омарова, Мая Искендерова, Мамед Мамедов, Рустам Рустамзаде, Гадир Рустамов, Рамиз Кулиев, Яшар Нури, Али Зейналов, Микаил Керимов, Наджиба Меликова, Ибрагим Алиев, Мамед Алили, Ильхам Ахмедов, Фирангиз Шарифова, Шахмар Алекперов, Шамиль Сулейманов, Кямиль Магерамов, Таниля Ахмерова, Али Ахвердиев, Фархад Гусейнов, Рафик Алиев, Шамси Шамсизаде, Микаил Мирзоев
Описание: Фильм повествует о жизни Узеира Гаджибекова, в фильме широко использованны исторические и документальные факты, материалы кинохроники.
В фильме звучат сочинения Узеира Гаджибекова и азербайджанская народная музыка, а также отрывки из произведений азербайджанских, русских, западноевропейских композиторов.

Доп. информация: КИНО-ТЕАТР.ru

Качество видео: TVRip
Формат видео: AVI
Видео: Xvid 704x528 25fps 1150 kbps
Аудио: MP3 48000Hz stereo 128kbps

MediaInfo

Complete name : Uzeir.Gadzhibekov.1981.TVRip.fenixclub\Uzeir.Gadzhibekov.1.avi
Format : AVI
Format/Info : Audio Video Interleave
File size : 800 MiB
Duration : 1h 26mn
Overall bit rate : 1 288 Kbps
Writing application : VirtualDubModRus 1.5.10.2 (build 2542/release)
Writing library : VirtualDub build 34753/release
Video
ID : 0
Format : MPEG-4 Visual
Format profile : Advanced Simple@L5
Format settings, BVOP : Yes
Format settings, QPel : No
Format settings, GMC : No warppoints
Format settings, Matrix : Default (H.263)
Codec ID : XVID
Codec ID/Hint : XviD
Duration : 1h 26mn
Bit rate : 1 150 Kbps
Width : 704 pixels
Height : 528 pixels
Display aspect ratio : 4:3
Frame rate : 25.000 fps
Color space : YUV
Chroma subsampling : 4:2:0
Bit depth : 8 bits
Scan type : Progressive
Compression mode : Lossy
Bits/(Pixel*Frame) : 0.124
Stream size : 714 MiB (89%)
Writing library : XviD 1.2.1 (UTC 2008-12-04)
Audio
ID : 1
Format : MPEG Audio
Format version : Version 1
Format profile : Layer 3
Mode : Joint stereo
Mode extension : MS Stereo
Codec ID : 55
Codec ID/Hint : MP3
Duration : 1h 26mn
Bit rate mode : Constant
Bit rate : 128 Kbps
Channel count : 2 channels
Sampling rate : 48.0 KHz
Compression mode : Lossy
Stream size : 79.5 MiB (10%)
Alignment : Split accross interleaves
Interleave, duration : 40 ms (1.00 video frame)
Interleave, preload duration : 500 ms
Complete name : Uzeir.Gadzhibekov.1981.TVRip.fenixclub\Uzeir.Gadzhibekov.2.avi
Format : AVI
Format/Info : Audio Video Interleave
File size : 692 MiB
Duration : 1h 15mn
Overall bit rate : 1 288 Kbps
Writing application : VirtualDubModRus 1.5.10.2 (build 2542/release)
Writing library : VirtualDub build 34753/release
Video
ID : 0
Format : MPEG-4 Visual
Format profile : Advanced Simple@L5
Format settings, BVOP : Yes
Format settings, QPel : No
Format settings, GMC : No warppoints
Format settings, Matrix : Default (H.263)
Codec ID : XVID
Codec ID/Hint : XviD
Duration : 1h 15mn
Bit rate : 1 151 Kbps
Width : 704 pixels
Height : 528 pixels
Display aspect ratio : 4:3
Frame rate : 25.000 fps
Color space : YUV
Chroma subsampling : 4:2:0
Bit depth : 8 bits
Scan type : Progressive
Compression mode : Lossy
Bits/(Pixel*Frame) : 0.124
Stream size : 618 MiB (89%)
Writing library : XviD 1.2.1 (UTC 2008-12-04)
Audio
ID : 1
Format : MPEG Audio
Format version : Version 1
Format profile : Layer 3
Mode : Joint stereo
Mode extension : MS Stereo
Codec ID : 55
Codec ID/Hint : MP3
Duration : 1h 15mn
Bit rate mode : Constant
Bit rate : 128 Kbps
Channel count : 2 channels
Sampling rate : 48.0 KHz
Compression mode : Lossy
Stream size : 68.7 MiB (10%)
Alignment : Split accross interleaves
Interleave, duration : 40 ms (1.00 video frame)
Interleave, preload duration : 500 ms

Скриншоты




[Профиль] [ЛС]

Создавать темы 06-Авг-2015 22:03 (спустя 11 месяцев 26 дней)

Топик был перенесен из форума Кино СССР в форум Кино СССР
sergej644
 
Кто просматривает тему:

Показать сообщения:    

Текущее время: Сегодня 00:43

Часовой пояс: GMT



Вы не можете начинать темы
Вы не можете отвечать на сообщения
Вы не можете редактировать свои сообщения
Вы не можете удалять свои сообщения
Вы не можете голосовать в опросах
Вы не можете прикреплять файлы к сообщениям
Вы не можете скачивать файлы