Ужин для двоих / Ужин, чтобы познакомить их / La cena per farli conoscere (Пупи Авати / Pupi Avati) [2006, Италия, сентиментальная комедия, DVB-AVC] MVO (Kino Polska)

 
Автор Сообщение

TorrentFilm ®

Пол:

Стаж: 2 года

Сообщений: 7741



Награды: Нет

Торрент-статистика

Создавать темы 11-Авг-2015 00:09

[Цитировать]

Ужин для двоих
La cena per farli conoscere- Страна: Италия
Жанр: сентиментальная комедия
Год выпуска: 2006
Продолжительность: 01:35:12Перевод: Профессиональный (многоголосый закадровый) по заказу Kino Polska на производственно-технической базе Студии "Акцент"
Cубтитры: нет
Режиссер: Пупи Авати / Pupi Avati
В ролях: Диего Абатантуоно / Diego Abatantuono (Sandro Lanza), Ванесса Инконтрада / Vanessa Incontrada (Clara Lanza), Виоланте Плачидо / Violante Placido (Betty Lanza), Инес Састре / Inés Sastre (Ines Lanza), Франческа Нери / Francesca Neri (Alma Kero)
Описание: Главный герой фильма — актер сериалов, никогда не добивавшийся успеха, отец трех дочерей от разных женщин. Дочери, каждая со своими проблемами и досадой на отца, приезжают в Рим, чтобы организовывать общий ужин… Фильм снят в духе традиционных итальянских комедий и высоко оценен критиками.
Доп. информация: Filmbox Arthouse IPTV. Во время диалогов по-испански дополнительно вшитые итальянские субтитры.
Награды: номинация David di Donatello Awards 2007 на лучшую актрису второго плана (Francesca Neri); номинация на "Золотой глобус" (Италия) 2007 лучшей актрисе (Violante Placido); 2 номинации на "Серебряную ленту" Italian National Syndicate of Film Journalists 2007 (лучший актер - Diego Abatantuono, лучшая актриса второго плана - Francesca Neri).

Качество видео: DVB-AVC
Формат видео: MKV
Видео: AVC (H.264), 720x576@1024x576 (16:9), 25 fps, ~589 kbps avg, 0.057 bit/pixel
Аудио: MPEG Audio 2, 2 ch, 48 kHz, ~128.00 kbps avg

MediaInfo

ОбщееУникальный идентификатор : 197555242819980458814149589650015356740 (0x949FC17AE9FD8EEFB806B43215758744)Полное имя : F:\My Torrents 3\[apreder]La_cena_per_farli_conoscere(2006)DVB.mkvФормат : MatroskaВерсия формата : Version 2Размер файла : 498 МбайтПродолжительность : 1 ч. 35 м.Общий поток : 731 Кбит/секДата кодирования : UTC 2015-08-09 09:58:40Программа кодирования : mkvmerge v8.2.0 ('World of Adventure') 64bitБиблиотека кодирования : libebml v1.3.1 + libmatroska v1.4.2Attachements : cover.jpg / cover_small.jpg
ВидеоИдентификатор : 2Формат : AVCФормат/Информация : Advanced Video CodecПрофиль формата : Main@L3Параметр CABAC формата : ДаПараметр ReFrames формата : 3 кадраИдентификатор кодека : V_MPEG4/ISO/AVCПродолжительность : 1 ч. 35 м.Битрейт : 589 Кбит/секШирина : 720 пикселейВысота : 576 пикселейСоотношение сторон : 16:9Соотношение сторон в оригинале : 16:9Режим частоты кадров : ПостоянныйЧастота кадров : 25,000 кадров/секСтандарт вещания : ComponentЦветовое пространство : YUVСубдискретизация насыщенности : 4:2:0Битовая глубина : 8 битТип развёртки : ПрогрессивнаяПорядок развёртки : Верхнее поле первоеБит/(Пиксели*Кадры) : 0.057Размер потока : 401 Мбайт (81%)Default : ДаForced : Нетcolour_range : LimitedОсновные цвета : BT.601 PALХарактеристики трансфера : BT.470 System B, BT.470 System GКоэффициенты матрицы : BT.601
АудиоИдентификатор : 1Формат : MPEG AudioВерсия формата : Version 1Профиль формата : Layer 2Идентификатор кодека : A_MPEG/L2Идентификатор кодека/Подсказка : MP2Продолжительность : 1 ч. 35 м.Вид битрейта : ПостоянныйБитрейт : 128 Кбит/секКаналы : 2 каналаЧастота : 48,0 КГцМетод сжатия : С потерямиЗадержка видео : -22 мс.Размер потока : 87,2 Мбайт (18%)Язык : RussianDefault : ДаForced : Нет

Скриншот c названием фильма

Скриншоты


Резервные скриншоты


-[2'537]
[Профиль] [ЛС]
Кто просматривает тему:

Показать сообщения:    

Текущее время: Сегодня 23:29

Часовой пояс: GMT



Вы не можете начинать темы
Вы не можете отвечать на сообщения
Вы не можете редактировать свои сообщения
Вы не можете удалять свои сообщения
Вы не можете голосовать в опросах
Вы не можете прикреплять файлы к сообщениям
Вы не можете скачивать файлы