Ужастики / Goosebumps (2015) BDRemux | Лицензия

 
Автор Сообщение

Russian Mafia ®

Пол:

Стаж: 1 год 8 месяцев

Сообщений: 4252



Награды: 10 (Подробнее)

Mega Seeder 5 (Количество: 1) Top Releaser 2 (Количество: 1) Mega Seeder 2 (Количество: 1)
Торрент-статистика

Создавать темы 19-Мар-2016 06:40

[Цитировать]

Производство: США, Австралия / Columbia Pictures, Original Film, Village Roadshow Pictures
Жанр: фэнтези, комедия, приключения
Режиссер: Роб Леттерман
Продюсер: Дебора Форте, Нил Х. Мориц, Билл Баннерман
Актеры: Дилан Миннетт, Одейя Раш, Эми Райан, Райан Ли, Джиллиан Белл, Джек Блэк, Кен Марино, Холстон Сейдж, Стивен Крюгер, Кит А. Болден
Описание:
Кошмары бывают разные. Вечно голодные оборотни, плохо воспитанные зомби, агрессивные садовые гномы и даже гигантский неуравновешенный снежный человек…
Все эти фантастические монстры и монстрики многие годы магическим образом удерживались на страницах знаменитых бестселлеров «Ужастики», пока по воле случая их не выпустили на свободу в реальный мир.

Возраст: 12+ (зрителям, достигшим 12 лет)
Рейтинг MPAA: PG (рекомендуется присутствие родителей)
Дата мировой премьеры: 3 октября 2015
Дата российской премьеры: 3 декабря 2015, «WDSSPR»
Продолжительность: 01:43:16
Качество: BDRemux
Перевод: Дублированный (Лицензия BD CEE)
Вид субтитров: Вшитые, отключаемые
Язык субтитров: Русский, Украинский, Английский
Видео: AVC/H.264, 1920x1080p, (16:9), 24.9 Mbps, 23.976 fps
Аудио: AC3, 6 ch, 640 kbps - Русский
Аудио: AC3, 6 ch, 448 kbps - Украинский
Аудио: AC3, 6 ch, 640 kbps - Английский
Аудио: TrueHD, 8 ch, 4210 kbps - Английский

MediaInfo:

Общее
Уникальный идентификатор : 170981941030671818471053347299429364132 (0x80A1EC8C7248C5578E0D1BDBD372B1A4)
Полное имя : E:VideoGoosebumps.2015.BDREMUX.1080p (S).mkv
Формат : Matroska
Версия формата : Version 4 / Version 2
Размер файла : 22,3 Гбайт
Продолжительность : 1 ч. 43 м.
Режим общего битрейта : Переменный
Общий поток : 31,0 Мбит/сек
Название фильма : Goosebumps.2015.BDREMUX.1080p (S)
Дата кодирования : UTC 2016-03-17 21:43:03
Программа кодирования : mkvmerge v8.3.0 ('Over the Horizon') 64bit
Библиотека кодирования : libebml v1.3.1 + libmatroska v1.4.2
Видео
Идентификатор : 1
Формат : AVC
Формат/Информация : Advanced Video Codec
Профиль формата : High@L4.1
Параметр CABAC формата : Да
Параметр ReFrames формата : 2 кадра
Параметр GOP формата : M=1, N=10
Идентификатор кодека : V_MPEG4/ISO/AVC
Продолжительность : 1 ч. 43 м.
Вид битрейта : Переменный
Битрейт : 24,9 Мбит/сек
Ширина : 1920 пикселей
Высота : 1080 пикселей
Соотношение сторон : 16:9
Режим частоты кадров : Постоянный
Частота кадров : 23,976 (24000/1001) кадра/сек
Цветовое пространство : YUV
Субдискретизация насыщенности : 4:2:0
Битовая глубина : 8 бит
Тип развёртки : Прогрессивная
Бит/(Пиксели*Кадры) : 0.500
Размер потока : 17,9 Гбайт (80%)
Язык : English
Default : Да
Forced : Нет
Аудио #1
Идентификатор : 2
Формат : AC-3
Формат/Информация : Audio Coding 3
Расширение режима : CM (complete main)
Параметр Endianness формата : Big
Идентификатор кодека : A_AC3
Продолжительность : 1 ч. 43 м.
Вид битрейта : Постоянный
Битрейт : 640 Кбит/сек
Каналы : 6 каналов
Расположение каналов : Front: L C R, Side: L R, LFE
Частота : 48,0 КГц
Частота кадров : 31,250 кадров/сек (1536 spf)
Метод сжатия : С потерями
Размер потока : 473 Мбайт (2%)
Заголовок : AC3 5.1 @ 640 kbps - DUB, Blu-ray CEE
Язык : Russian
Default : Да
Forced : Нет
Аудио #2
Идентификатор : 3
Формат : AC-3
Формат/Информация : Audio Coding 3
Расширение режима : CM (complete main)
Параметр Endianness формата : Big
Идентификатор кодека : A_AC3
Продолжительность : 1 ч. 43 м.
Вид битрейта : Постоянный
Битрейт : 448 Кбит/сек
Каналы : 6 каналов
Расположение каналов : Front: L C R, Side: L R, LFE
Частота : 48,0 КГц
Частота кадров : 31,250 кадров/сек (1536 spf)
Метод сжатия : С потерями
Размер потока : 331 Мбайт (1%)
Заголовок : AC3 5.1 @ 448 kbps - DUB, Blu-ray CEE
Язык : Ukrainian
Default : Нет
Forced : Нет
Аудио #3
Идентификатор : 4
Формат : Atmos / TrueHD
Идентификатор кодека : A_TRUEHD
Продолжительность : 1 ч. 43 м.
Вид битрейта : Переменный
Битрейт : 4210 Кбит/сек
Максимальный битрейт : 7437 Кбит/сек
Каналы : Object Based / 8 каналов
Расположение каналов : Object Based / Front: L C R, Side: L R, Back: L R, LFE
Частота : / 48,0 КГц
Частота кадров : 1200,000 кадров/сек (40 spf)
Метод сжатия : Без потерь
Размер потока : 3,04 Гбайт (14%)
Язык : English
Default : Нет
Forced : Нет
Аудио #4
Идентификатор : 5
Формат : AC-3
Формат/Информация : Audio Coding 3
Расширение режима : CM (complete main)
Параметр Endianness формата : Big
Идентификатор кодека : A_AC3
Продолжительность : 1 ч. 43 м.
Вид битрейта : Постоянный
Битрейт : 640 Кбит/сек
Каналы : 6 каналов
Расположение каналов : Front: L C R, Side: L R, LFE
Частота : 48,0 КГц
Частота кадров : 31,250 кадров/сек (1536 spf)
Метод сжатия : С потерями
Размер потока : 473 Мбайт (2%)
Язык : English
Default : Нет
Forced : Нет
Текст #1
Идентификатор : 6
Формат : UTF-8
Идентификатор кодека : S_TEXT/UTF8
Идентификатор кодека/Информация : UTF-8 Plain Text
Продолжительность : 1 ч. 33 м.
Битрейт : 1 бит/сек
Count of elements : 20
Размер потока : 796 байт (0%)
Заголовок : Forced, iTunes
Язык : Russian
Default : Да
Forced : Нет
Текст #2
Идентификатор : 7
Формат : UTF-8
Идентификатор кодека : S_TEXT/UTF8
Идентификатор кодека/Информация : UTF-8 Plain Text
Продолжительность : 1 ч. 34 м.
Битрейт : 91 бит/сек
Count of elements : 1229
Размер потока : 63,2 Кбайт (0%)
Заголовок : iTunes
Язык : Russian
Default : Нет
Forced : Нет
Текст #3
Идентификатор : 8
Формат : PGS
Режим смешивания : zlib
Идентификатор кодека : S_HDMV/PGS
Идентификатор кодека/Информация : Picture based subtitle format used on BDs/HD-DVDs
Продолжительность : 1 ч. 34 м.
Битрейт : 22,1 Кбит/сек
Count of elements : 2458
Размер потока : 15,0 Мбайт (0%)
Язык : Russian
Default : Нет
Forced : Нет
Текст #4
Идентификатор : 9
Формат : UTF-8
Идентификатор кодека : S_TEXT/UTF8
Идентификатор кодека/Информация : UTF-8 Plain Text
Продолжительность : 1 ч. 33 м.
Битрейт : 1 бит/сек
Count of elements : 20
Размер потока : 778 байт (0%)
Заголовок : Forced, iTunes
Язык : Ukrainian
Default : Нет
Forced : Нет
Текст #5
Идентификатор : 10
Формат : UTF-8
Идентификатор кодека : S_TEXT/UTF8
Идентификатор кодека/Информация : UTF-8 Plain Text
Продолжительность : 1 ч. 34 м.
Битрейт : 90 бит/сек
Count of elements : 1221
Размер потока : 62,3 Кбайт (0%)
Заголовок : iTunes
Язык : Ukrainian
Default : Нет
Forced : Нет
Текст #6
Идентификатор : 11
Формат : PGS
Режим смешивания : zlib
Идентификатор кодека : S_HDMV/PGS
Идентификатор кодека/Информация : Picture based subtitle format used on BDs/HD-DVDs
Продолжительность : 1 ч. 34 м.
Битрейт : 21,5 Кбит/сек
Count of elements : 2442
Размер потока : 14,5 Мбайт (0%)
Язык : Ukrainian
Default : Нет
Forced : Нет
Текст #7
Идентификатор : 12
Формат : PGS
Режим смешивания : zlib
Идентификатор кодека : S_HDMV/PGS
Идентификатор кодека/Информация : Picture based subtitle format used on BDs/HD-DVDs
Продолжительность : 1 ч. 42 м.
Битрейт : 15,8 Кбит/сек
Count of elements : 3039
Размер потока : 11,5 Мбайт (0%)
Язык : English
Default : Нет
Forced : Нет
Текст #8
Идентификатор : 13
Формат : PGS
Режим смешивания : zlib
Идентификатор кодека : S_HDMV/PGS
Идентификатор кодека/Информация : Picture based subtitle format used on BDs/HD-DVDs
Продолжительность : 1 ч. 33 м.
Битрейт : 14,6 Кбит/сек
Count of elements : 2396
Размер потока : 9,76 Мбайт (0%)
Язык : English
Default : Нет
Forced : Нет
Текст #9
Идентификатор : 14
Формат : UTF-8
Идентификатор кодека : S_TEXT/UTF8
Идентификатор кодека/Информация : UTF-8 Plain Text
Продолжительность : 1 ч. 33 м.
Битрейт : 58 бит/сек
Count of elements : 1198
Размер потока : 40,0 Кбайт (0%)
Заголовок : iTunes
Язык : English
Default : Нет
Forced : Нет
Меню
00:00:00.000 : en:00:00:00.000
00:08:09.698 : en:00:08:09.698
00:11:45.955 : en:00:11:45.955
00:17:54.031 : en:00:17:54.031
00:21:52.853 : en:00:21:52.853
00:27:57.843 : en:00:27:57.843
00:32:40.292 : en:00:32:40.292
00:38:29.849 : en:00:38:29.849
00:44:37.008 : en:00:44:37.008
00:52:01.452 : en:00:52:01.452
00:58:12.948 : en:00:58:12.948
01:03:40.608 : en:01:03:40.608
01:09:56.317 : en:01:09:56.317
01:16:40.763 : en:01:16:40.763
01:22:55.220 : en:01:22:55.220
01:31:13.093 : en:01:31:13.093
Скриншоты:

Время раздачи: 24/7
[Профиль] [ЛС]
Показать сообщения:    

Текущее время: Сегодня 00:48

Часовой пояс: GMT



Вы не можете начинать темы
Вы не можете отвечать на сообщения
Вы не можете редактировать свои сообщения
Вы не можете удалять свои сообщения
Вы не можете голосовать в опросах
Вы не можете прикреплять файлы к сообщениям
Вы не можете скачивать файлы