Ужастики / Goosebumps (2015) BDRip 1080p | Лицензия

 
Автор Сообщение

Russian Mafia ®

Пол:

Стаж: 1 год 8 месяцев

Сообщений: 4255



Награды: 10 (Подробнее)

Top Releaser 2 (Количество: 1) Top Releaser 5 (Количество: 1) Top Releaser 3 (Количество: 1)
Торрент-статистика

Создавать темы 17-Мар-2016 15:48

[Цитировать]

Информация о фильме
Название: Ужастики
Оригинальное название: Goosebumps
Год выхода: 2015
Жанр: фэнтези, комедия, приключения
Режиссер: Роб Леттерман
В ролях: Дилан Миннетт, Одейя Раш, Эми Райан, Райан Ли, Джиллиан Белл, Джек Блэк, Кен Марино, Холстон Сейдж, Стивен Крюгер, Кит А. Болден
О фильме:
Ханна, юная соседка Зака, недавно переехавшего в новый дом - веселая и светлая девушка, живущая в мрачном и загадочном месте. Таким его делает Роберт - отец Ханны. В их большом доме по вечерам случаются совершенно непонятные вещи, и однажды, когда Зак услышал истошный крик соседки, он бросился к ней на выручку. Только все с самого начала пошло не так, ведь Ханна забыла его предупредить, чтобы он не трогал вещи отца. Никогда! Не сейчас...
Роберт Стайн, знаменитый автор книжек-ужастиков для подростков, скрывает от мира страшную тайну - его герои: оборотни, зомби, садовые гномы и сердитый снежный человек - на самом деле реальны! И крайне опасны...

Страна: США, Австралия
Студия: Columbia Pictures, LStar Capital, Original Film, Sony Pictures Animation
Продолжительность: 01:43:16
Перевод: Профессиональный (дублированный) Blu-ray EUR
Релиз:
Файл
Формат: Matroska
Видео: 1920x804 at 23.976 fps, [email protected]/* */, ~12400 kbps avg
Aудио#1: Russian: 48 kHz, AC3, 3/2 (L,C,R,l,r) + LFE ch, ~640.00 kbps avg |Дубляж, Blu-ray EUR|
Aудио#2: Ukrainian: 48 kHz, AC3, 3/2 (L,C,R,l,r) + LFE ch, ~448.00 kbps avg |Дубляж, Blu-ray EUR|
Aудио#3: English: 48 kHz, DTS, 3/2 (L,C,R,l,r) + LFE ch, ~1509.00 kbps avg
Субтитры: Russian (Forced), Russian (iTunes), Ukrainian (Forced), Ukrainian (iTunes), English
***Сохранены оригинальные главы как на Blu-ray.
***Видеоряд - Ayaku.

Знаете ли Вы, что...

Съёмки некоторых сцен фильма проходили в Мэдисоне в штате Джорджия. Выбранный голосованием «лучшим небольшим городком Америки», Мэдисон нередко служит площадкой для киносъёмок.
Фильм снят по мотивам одноимённой серии книг для подростков в жанре «триллер/ужасы».
Псевдоним «мистер Шиверс», под которым скрывается сам Роберт Лоуренс Стайн, возможно, взят из названия серии книг «Содрогание» («Шиверс») М. Д. Спенсера, написанной по следам крайне популярной серии «Ужастики».
Зак впервые спускается в подвал Стайна и пугается кукушки. Та кукует четыре раза, хотя часы показывают два часа.
У чудищ нет никаких причин признавать Слэппи своим вожаком. Книги серии друг с другом не связаны, так что ни чудища о Слэппи, ни Слэппи о чудищах никакого представления иметь не должны.
Снежный человек появился на свет со страниц книги, а затем снова растворился в печатном тексте. Когда Слэппи сжигает книги на футбольном поле, чудища материализуются не из них.
Когда за автомобилем Стайна гонится гигантский богомол, фары дальнего света автомобиля постоянно загораются и гаснут.
Дети в кабинках чёртова колеса непременно пострадали бы, когда оно сорвалось и покатилось. Более того, резкая остановка, когда колесо наконец застряло в деревьях, выбросила бы детей из кабинок, потому что ремней безопасности на них не было.
Закончив историю, Зак написал «все чудища», но это оказалось ошибкой, потому что таким образом он причислил к чудищам и Ханну, которой теперь тоже предстояло быть запертой на страницах книги. В последних кадрах фильма мимо печатной машинки проходит Роберт Лоуренс Стайн. Когда невидимый мальчик шепчет: «Ты забыл про меня», - Стайн обнаруживает, что тот пользуется машинкой. В принципе, то, что напечатал Зак, должно относиться и к нему самому.
При показе финальных титров фильма слышно, как один из гномов с газона смеётся, а другой с окончанием титров кричит: «Э-ге-гей!»
В конце фильма на экране появляется Роберт Лоуренс Стайн. Когда мимо проходит актёр Джек Блэк, он говорит: «Здравствуйте, мистер Стайн». В ответ Стайн так же любезно здоровается.
Стайн ищет в школе укромное местечко, чтобы написать очередную книгу, и обнаруживает пустынный актовый зал, где школьная театральная труппа репетирует постановку «Сияния» по роману Стивена Кинга. Декорации изображают номер отеля. В декорациях присутствуют ссылки на шутки, уже прозвучавшие в фильме, когда Стайна сравнивали со «Стивом Кингом», а также намёк на писателя и номер в отеле.
Ханна является персонажем «Призрака по соседству», одной из книг серии «Ужастики». Сюжет книги закручен вокруг подозрений Ханны, что их сосед является призраком, хотя на самом деле призраками являются Ханна и её близкие.
В фильме Роберт Лоуренс Стайн печатает свои книги на машинке, и они оборачиваются явью. В конце фильма Заку приходится закончить печатание, чтобы выдуманная история обернулась правдой. Здесь наблюдается сходство с сюжетом одной из книг Стайна «Бесформер», который всех сожрал», где главный герой по имени Зэки владеет пишущей машинкой, которая материализует напечатанные на ней истории в жизни.
Когда гномы связывают мистера Стайна, которого играет Джек Блэк, и собираются сунуть его в духовку, это т. н. «пасхальное яйцо». Эта сцена повторяет эпизод из фильма «Путешествия Гулливера», где в главной роли тоже снялся Джек Блэк.
По окончании первого семинара Джек Блэк в роли Роберта Лоуренса Стайна натыкается на другого преподавателя, который приветствует его словами «Добрый день, мистер Стайн», на что Блэк отвечает: «Здравствуйте, мистер Блэк». После этого он говорит Заку, что мистер Блэк - это новый руководитель театрального кружка. Это отсылка к фильму «Школа рока» (2003), где также снимался Джек Блэк. Мистера Блэка играет сам Роберт Лоуренс Стайн.
Когда в конце фильма Роберт Лоуренс Стайн проходит мимо запертой за стеклом машинки, та начинает печатать. Выясняется, что это печатает невидимый мальчик, на стекле виден отпечаток его руки. Стайн поворачивается и вскрикивает, потому что невидимый мальчик оказывается у него за спиной. Невидимый мальчик не мог там оказаться из-за разделявшего их стекла.

MI

Общее
Уникальный идентификатор : 188884019215977696594053371965422192773 (0x8E19BD26168647FDAAB29D09C1FC4885)
Полное имя : Goosebumps.2015.1080p.BluRay.Rus.Ukr.Eng.HDCLUB.mkv
Формат : Matroska
Версия формата : Version 2
Размер файла : 11,0 Гбайт
Продолжительность : 1 ч. 43 м.
Общий поток : 15,3 Мбит/сек
Название фильма : Goosebumps (2015) - Release for HDCLUB
Дата кодирования : UTC 2016-03-16 05:43:07
Программа кодирования : mkvmerge v3.4.0 ('Rapunzel') built on May 15 2010 09:38:20
Библиотека кодирования : libebml v0.8.0 + libmatroska v0.9.0
Видео
Идентификатор : 1
Формат : AVC
Формат/Информация : Advanced Video Codec
Профиль формата : High@L4.1
Параметр CABAC формата : Да
Параметр ReFrames формата : 4 кадра
Идентификатор кодека : V_MPEG4/ISO/AVC
Продолжительность : 1 ч. 43 м.
Битрейт : 12,4 Мбит/сек
Ширина : 1920 пикселей
Высота : 804 пикселя
Соотношение сторон : 2,40:1
Режим частоты кадров : Постоянный
Частота кадров : 23,976 кадра/сек
Цветовое пространство : YUV
Субдискретизация насыщенности : 4:2:0
Битовая глубина : 8 бит
Тип развёртки : Прогрессивная
Бит/(Пиксели*Кадры) : 0.335
Размер потока : 8,94 Гбайт (81%)
Заголовок : Goosebumps (2015) - Release for HDCLUB
Библиотека кодирования : x264 core 148 r2638kMod 7599210
Настройки программы : cabac=1 / ref=4 / deblock=1:-3:-3 / analyse=0x3:0x113 / me=umh / subme=11 / psy=1 / fade_compensate=0.00 / psy_rd=1.00:0.00 / mixed_ref=1 / me_range=32 / chroma_me=1 / trellis=2 / 8x8dct=1 / cqm=0 / deadzone=21,11 / fast_pskip=0 / chroma_qp_offset=-2 / threads=12 / lookahead_threads=2 / sliced_threads=0 / nr=0 / decimate=0 / interlaced=0 / bluray_compat=0 / constrained_intra=0 / fgo=0 / bframes=8 / b_pyramid=2 / b_adapt=2 / b_bias=0 / direct=3 / weightb=1 / open_gop=0 / weightp=2 / keyint=250 / keyint_min=23 / scenecut=40 / intra_refresh=0 / rc_lookahead=50 / rc=crf / mbtree=0 / crf=17.7000 / qcomp=0.80 / qpmin=0 / qpmax=69 / qpstep=4 / vbv_maxrate=62500 / vbv_bufsize=78125 / crf_max=0.0 / nal_hrd=none / filler=0 / ip_ratio=1.20 / pb_ratio=1.10 / aq=3:0.65 / zones=0,300,crf=19/140097,148559,crf=21
Язык : English
Default : Да
Forced : Нет
Аудио #1
Идентификатор : 2
Формат : AC-3
Формат/Информация : Audio Coding 3
Расширение режима : CM (complete main)
Параметр Endianness формата : Big
Идентификатор кодека : A_AC3
Продолжительность : 1 ч. 43 м.
Вид битрейта : Постоянный
Битрейт : 640 Кбит/сек
Каналы : 6 каналов
Расположение каналов : Front: L C R, Side: L R, LFE
Частота : 48,0 КГц
Метод сжатия : С потерями
Размер потока : 473 Мбайт (4%)
Заголовок : AC3 5.1 @ 640 kbps - DUB, Blu-ray CEE
Язык : Russian
Default : Да
Forced : Нет
Аудио #2
Идентификатор : 3
Формат : AC-3
Формат/Информация : Audio Coding 3
Расширение режима : CM (complete main)
Параметр Endianness формата : Big
Идентификатор кодека : A_AC3
Продолжительность : 1 ч. 43 м.
Вид битрейта : Постоянный
Битрейт : 448 Кбит/сек
Каналы : 6 каналов
Расположение каналов : Front: L C R, Side: L R, LFE
Частота : 48,0 КГц
Метод сжатия : С потерями
Размер потока : 331 Мбайт (3%)
Заголовок : AC3 5.1 @ 448 kbps - DUB, Blu-ray CEE
Язык : Ukrainian
Default : Нет
Forced : Нет
Аудио #3
Идентификатор : 4
Формат : DTS
Формат/Информация : Digital Theater Systems
Режим : 16
Параметр Endianness формата : Big
Идентификатор кодека : A_DTS
Продолжительность : 1 ч. 43 м.
Вид битрейта : Постоянный
Битрейт : 1509 Кбит/сек
Каналы : 6 каналов
Расположение каналов : Front: L C R, Side: L R, LFE
Частота : 48,0 КГц
Битовая глубина : 16 бит
Метод сжатия : С потерями
Размер потока : 1,09 Гбайт (10%)
Заголовок : DTS 5.1 @ 1536 kbps
Язык : English
Default : Нет
Forced : Нет
Текст #1
Идентификатор : 5
Формат : UTF-8
Идентификатор кодека : S_TEXT/UTF8
Идентификатор кодека/Информация : UTF-8 Plain Text
Заголовок : Forced, iTunes
Язык : Russian
Default : Да
Forced : Нет
Текст #2
Идентификатор : 6
Формат : UTF-8
Идентификатор кодека : S_TEXT/UTF8
Идентификатор кодека/Информация : UTF-8 Plain Text
Заголовок : iTunes
Язык : Russian
Default : Нет
Forced : Нет
Текст #3
Идентификатор : 7
Формат : UTF-8
Идентификатор кодека : S_TEXT/UTF8
Идентификатор кодека/Информация : UTF-8 Plain Text
Заголовок : Forced, iTunes
Язык : Ukrainian
Default : Нет
Forced : Нет
Текст #4
Идентификатор : 8
Формат : UTF-8
Идентификатор кодека : S_TEXT/UTF8
Идентификатор кодека/Информация : UTF-8 Plain Text
Заголовок : iTunes
Язык : Ukrainian
Default : Нет
Forced : Нет
Текст #5
Идентификатор : 9
Формат : UTF-8
Идентификатор кодека : S_TEXT/UTF8
Идентификатор кодека/Информация : UTF-8 Plain Text
Заголовок : iTunes
Язык : English
Default : Нет
Forced : Нет
Меню
00:00:00.000 : en:00:00:00.000
00:08:09.698 : en:00:08:09.698
00:11:45.955 : en:00:11:45.955
00:17:54.031 : en:00:17:54.031
00:21:52.853 : en:00:21:52.853
00:27:57.843 : en:00:27:57.843
00:32:40.292 : en:00:32:40.292
00:38:29.849 : en:00:38:29.849
00:44:37.008 : en:00:44:37.008
00:52:01.452 : en:00:52:01.452
00:58:12.948 : en:00:58:12.948
01:03:40.608 : en:01:03:40.608
01:09:56.317 : en:01:09:56.317
01:16:40.763 : en:01:16:40.763
01:22:55.220 : en:01:22:55.220
01:31:13.093 : en:01:31:13.093

Скриншоты

[Профиль] [ЛС]
Показать сообщения:    

Текущее время: Сегодня 16:19

Часовой пояс: GMT



Вы не можете начинать темы
Вы не можете отвечать на сообщения
Вы не можете редактировать свои сообщения
Вы не можете удалять свои сообщения
Вы не можете голосовать в опросах
Вы не можете прикреплять файлы к сообщениям
Вы не можете скачивать файлы