Удивительный мир Альбера Кана / The wonderful world of Albert Kahn (Мик Конфри) / Серии: 1-6, 8, 9 из 10 [2007, Документальный, DVBRip]

 
Автор Сообщение

reversefile ®

Пол:

Стаж: 4 года 5 месяцев

Сообщений: 842

Откуда: ReverseFile.org



Награды: Нет

Торрент-статистика

Создавать темы 24-Июл-2014 17:55

[Цитировать]

Удивительный мир Альбера Кана / The wonderful world of Albert Kahn
Год выпуска: 2007
Страна: Великобритания
Жанр: Документальный
Продолжительность: ~00:59:00 каждая серия.
Перевод: Профессиональный (двухголосый закадровый)
Русские субтитры: нет
Режиссер: Мик Конфри
Описание: В начале XX века французский миллионер Альбер Кан начал самый грандиозный проект, какой видел мир. Используя кинопленку и новейшую систему цветной фотографии, он стремился сохранить повседневную жизнь людей всего земного шара.
Доп. информация: Это буржуйские записи с канала BBC, я подгонял к ним русский перевод из записей с канала Культура. Но от канала культура серии были мягко говоря сокращены. Поэтому в моём релизе есть куски без перевода.
Кстати у меня есть 2 серии, которые не показывали по Культуре, соответственно перевода к ним нет и добавить в роздачу их не могу. Поэтому если кто-то захочет заняться переводом -- милости прошу в ЛС, на 1 серию есть даже подогнанные английские сабы.
Сэмпл: http://multi-up.com/936318
качество: DVBRip
формат: MKV
Видео: x264, 720x576, 25.000 fps, 1603 Kbps, 0.155 (bit/pixel)
Аудио 1: AC3, 192 kbps, 48 kHz, 2 ch (Русский)
Аудио 2: mp3, 160 kbps, 48 kHz, 2 ch (Английский)

Список выпусков/серий

A Vision of the World (Видение Мира)
Men of the World (Люди мира)
Europe on the Brink (Европа на грани войны)
The Soldiers Story (Солдатская история)
The Civilians Story (История мирного населения)
Europe after the Fire (Европа после войны)
Far East Expeditions to Empires (Экспедиция на Восток)
The End of a World (Край света)

MediaInfo

General
Unique ID : 241298047797553726178413332927792214232 (0xB58850469E463DDC9E829CD02D4EF0D8)
Complete name : D:\VLAD\The wonderful world of Albert Kahn\The.Wonderful.World.of.Albert.Kahn_1.mkv
Format : Matroska
Format version : Version 1
File size : 828 MiB
Duration : 59mn 4s
Overall bit rate : 1 959 Kbps
Encoded date : UTC 2013-07-23 01:19:11
Writing application : mkvmerge v2.4.2 ('Oh My God') built on Jan 18 2009 17:30:28
Writing library : libebml v0.7.7 + libmatroska v0.8.1
Video
ID : 1
Format : AVC
Format/Info : Advanced Video Codec
Format profile : High@L5.1
Format settings, CABAC : Yes
Format settings, ReFrames : 8 frames
Codec ID : V_MPEG4/ISO/AVC
Duration : 59mn 5s
Bit rate : 1 603 Kbps
Width : 720 pixels
Height : 576 pixels
Display aspect ratio : 1.85:1
Original display aspect ratio : 5:4
Frame rate mode : Constant
Frame rate : 25.000 fps
Standard : PAL
Color space : YUV
Chroma subsampling : 4:2:0
Bit depth : 8 bits
Scan type : Progressive
Bits/(Pixel*Frame) : 0.155
Stream size : 663 MiB (80%)
Writing library : x264 core 54 svn-654
Encoding settings : cabac=1 / ref=5 / deblock=1:-2:-1 / analyse=0x3:0x133 / me=umh / subme=6 / brdo=1 / mixed_ref=1 / me_range=16 / chroma_me=1 / trellis=1 / 8x8dct=1 / cqm=0 / deadzone=21,11 / chroma_qp_offset=0 / threads=1 / nr=0 / decimate=1 / mbaff=0 / bframes=3 / b_pyramid=1 / b_adapt=1 / b_bias=0 / direct=3 / wpredb=1 / bime=1 / keyint=250 / keyint_min=25 / scenecut=40 / rc=2pass / bitrate=1603 / ratetol=1.0 / rceq='blurCplx^(1-qComp)' / qcomp=0.60 / qpmin=10 / qpmax=51 / qpstep=4 / cplxblur=20.0 / qblur=0.5 / ip_ratio=1.40 / pb_ratio=1.30
Default : Yes
Forced : No
Audio #1
ID : 2
Format : AC-3
Format/Info : Audio Coding 3
Mode extension : CM (complete main)
Format settings, Endianness : Big
Codec ID : A_AC3
Duration : 59mn 4s
Bit rate mode : Constant
Bit rate : 192 Kbps
Channel count : 2 channels
Channel positions : Front: L R
Sampling rate : 48.0 KHz
Bit depth : 16 bits
Compression mode : Lossy
Stream size : 81.1 MiB (10%)
Language : Russian
Default : No
Forced : No
Audio #2
ID : 3
Format : MPEG Audio
Format version : Version 1
Format profile : Layer 3
Mode : Joint stereo
Mode extension : MS Stereo
Codec ID : A_MPEG/L3
Codec ID/Hint : MP3
Duration : 59mn 4s
Bit rate mode : Constant
Bit rate : 160 Kbps
Channel count : 2 channels
Sampling rate : 48.0 KHz
Compression mode : Lossy
Stream size : 67.6 MiB (8%)
Title : MP3 @ 160 kbks (CBR)
Writing library : LAME3.98a
Encoding settings : -m j -V 4 -q 2 -lowpass 17.5 -b 160
Language : English
Default : No
Forced : No

Скриншоты

[Профиль] [ЛС]
Кто просматривает тему:

Форум Тема Автор Размер
BBC BBC: Удивительный мир Альбера Кана / The Wonderful World of Albert Kahn [серии 1-6, 8,9 из 10] (Мик Конфри) [2007-2008 г., Документальный, история, SATRip] DVO skorpionN 5.7 GB
BBC BBC: Удивительный мир крови / The Wonderful World of Blood with Michael Mosley (Нейтон Бадд / Nathan Budd) [2015 г., Документальный, научно-познавательный, HDTVRip-AVC 720p] skorpionN 1.49 GB
Discovery Discovery: Удивительный секс / Discovery: Strange Sex (Джонатан Группер / Jonathan Grupper) [2009, США, документальный, познавательный, физиология, психология, DVDRip] DVO reversefile 700 MB
Nat Geo Wild Nat Geo Wild: Удивительные копатели / Incredible Diggers (Jessica Connell) [2015 г., Документальный, научно-познавательный, HDTVRip-AVC 720p] skorpionN 1.65 GB
Nat Geo Wild Nat Geo Wild: Удивительные насекомые / Incredible Insects (Jessica Connell) [2015 г., Документальный, научно-познавательный, HDTVRip 720p] skorpionN 1.65 GB
Nat Geo Wild Nat Geo Wild: Удивительные пауки / Incredible Spiders (Jessica Connell) [2015 г., Документальный, научно-познавательный, HDTVRip 720p] skorpionN 1.34 GB
Мировая классика Джеймс Хэрриот - Записки ветеринара 02, О всех созданиях, прекрасных и удивительных [Герасимов Вячеслав, 2015 г., 96 kbps, MP3] Garik014 579 MB
Разная литература Майк Голдсмит - Эврика! Самые удивительные научные открытия всех времен (2014) PDF достали все 52 MB
Показать сообщения:    

Текущее время: Сегодня 04:17

Часовой пояс: GMT



Вы не можете начинать темы
Вы не можете отвечать на сообщения
Вы не можете редактировать свои сообщения
Вы не можете удалять свои сообщения
Вы не можете голосовать в опросах
Вы не можете прикреплять файлы к сообщениям
Вы не можете скачивать файлы