Удивительный манеж (Леонард Бабаханов) [1979 г., мультфильм , DVB]

 
Автор Сообщение

TorrentFilm ®

Пол:

Стаж: 2 года

Сообщений: 7741



Награды: Нет

Торрент-статистика

Создавать темы 03-Янв-2016 00:04

[Цитировать]

Удивительный манеж
Жанр: мультфильм
Год выпуска: 1979
Продолжительность: 00:08:08
Режиссёр: Леонард Бабаханов
Описание: мультфильм о том, как красавица-корова стала артисткой цирка ...
Доп. информация:

Релиз группы:
Качество видео: DVB
Формат видео: MPEG-PS
Видео: MPEG2 Video, 720x576, 25 fps, 3400 kbps
Аудио: MPEG Audio, 2 сh, 48 kHz, 192 kbps
Трансляция спутникового канала: "Карусель"

MediaInfo

D:\Удивительный манеж. (1979)_DVB by SLuMeP.mpg
General
Complete name : D:\Удивительный манеж. (1979)_DVB by SLuMeP.mpg
Format : MPEG-PS
File size : 214 MiB
Duration : 8mn 8s
Overall bit rate mode : Variable
Overall bit rate : 3 678 Kbps
Video #224
ID : 224 (0xE0)
Format : MPEG Video
Format version : Version 2
Format profile : Main@Main
Format settings, BVOP : Yes
Format settings, Matrix : Custom
Duration : 8mn 8s
Bit rate mode : Variable
Bit rate : 3 413 Kbps
Maximum bit rate : 5 000 Kbps
Width : 720 pixels
Height : 576 pixels
Display aspect ratio : 4:3
Frame rate : 25.000 fps
Standard : PAL
Color space : YUV
Chroma subsampling : 4:2:0
Bit depth : 8 bits
Scan type : Interlaced
Scan order : Top Field First
Compression mode : Lossy
Bits/(Pixel*Frame) : 0.329
Stream size : 199 MiB (93%)
Audio #192
ID : 192 (0xC0)
Format : MPEG Audio
Format version : Version 1
Format profile : Layer 2
Duration : 8mn 8s
Bit rate mode : Constant
Bit rate : 192 Kbps
Channel(s) : 2 channels
Sampling rate : 48.0 KHz
Compression mode : Lossy
Stream size : 11.2 MiB (5%)

Скриншоты

[Профиль] [ЛС]
Кто просматривает тему:

Форум Тема Автор Размер
BBC BBC: Удивительный мир Альбера Кана / The Wonderful World of Albert Kahn [серии 1-6, 8,9 из 10] (Мик Конфри) [2007-2008 г., Документальный, история, SATRip] DVO skorpionN 5.7 GB
BBC BBC: Удивительный мир крови / The Wonderful World of Blood with Michael Mosley (Нейтон Бадд / Nathan Budd) [2015 г., Документальный, научно-познавательный, HDTVRip-AVC 720p] skorpionN 1.49 GB
Discovery Discovery: Удивительный секс / Discovery: Strange Sex (Джонатан Группер / Jonathan Grupper) [2009, США, документальный, познавательный, физиология, психология, DVDRip] DVO reversefile 700 MB
Nat Geo Wild Nat Geo Wild: Удивительные копатели / Incredible Diggers (Jessica Connell) [2015 г., Документальный, научно-познавательный, HDTVRip-AVC 720p] skorpionN 1.65 GB
Nat Geo Wild Nat Geo Wild: Удивительные насекомые / Incredible Insects (Jessica Connell) [2015 г., Документальный, научно-познавательный, HDTVRip 720p] skorpionN 1.65 GB
Nat Geo Wild Nat Geo Wild: Удивительные пауки / Incredible Spiders (Jessica Connell) [2015 г., Документальный, научно-познавательный, HDTVRip 720p] skorpionN 1.34 GB
Мировая классика Джеймс Хэрриот - Записки ветеринара 02, О всех созданиях, прекрасных и удивительных [Герасимов Вячеслав, 2015 г., 96 kbps, MP3] Garik014 579 MB
Разная литература Майк Голдсмит - Эврика! Самые удивительные научные открытия всех времен (2014) PDF достали все 52 MB
Показать сообщения:    

Текущее время: Сегодня 05:18

Часовой пояс: GMT



Вы не можете начинать темы
Вы не можете отвечать на сообщения
Вы не можете редактировать свои сообщения
Вы не можете удалять свои сообщения
Вы не можете голосовать в опросах
Вы не можете прикреплять файлы к сообщениям
Вы не можете скачивать файлы