Удивительные приключения Хомы / 7 серий (Владимир Тарасов, Алексей Штыхин, Дмитрий Семёнов, Борис Тузанович) [2005, мультфильм, TVRip]

 
Автор Сообщение

TorrentFilm ®

Пол:

Стаж: 2 года

Сообщений: 7741



Награды: Нет

Торрент-статистика

Создавать темы 03-Янв-2016 00:08

[Цитировать]

Удивительные приключения Хомы
Страна: Россия
Жанр: мультфильм
Продолжительность: 00:13:00
Год выпуска: 2005
Режиссёр: Владимир Тарасов, Алексей Штыхин, Дмитрий Семёнов, Борис Тузанович
Роли озвучивали: Сергей Белоголовцев, Павел Кабанов, Никита Прозоровский, Ольга Зверева и другие
Описание: Сериал был снят по мотивам произведений о Хоме Альберта Иванова. В каждой серии с Хомой и его другом Сусликом происходят различные переделки, из которых они находят выход благодаря своей дружбе. wikipedia
Список серий:
01 - как Хома и Суслик не разлучались.avi
02 - как Хома свою нору искал.avi
03 - как Хома звезды спасал.avi
04 - как Хома рыбу ловил.avi
05 - как друзья Хому лечили.avi
06 - как Хома страшные истории рассказывал.avi
07 - как Хома Суслика покупал.avi
Качество: TVRip
Формат: AVI
Видео: 640x480 (4:3), 25 fps, XviD MPEG-4 ~1500 kbps avg
Аудио: 44.100 kHz, MPEG Layer 3, 1 ch, ~128 kbps avg

Подробные технические данные

General 01 - как Хома и Суслик не разлучались.avi Format : AVI Format/Info : Audio Video Interleave File size : 150 MiB Duration : 13mn 13s Overall bit rate : 1 586 Kbps Writing application : VirtualDubMod 1.5.10.2 (build 2540/release) Writing library : VirtualDubMod build 2540/release Video #0 ID : 0 Format : MPEG-4 Visual Format profile : Advanced Simple@L5 Format settings, BVOP : 2 Format settings, QPel : No Format settings, GMC : No warppoints Format settings, Matrix : Default (H.263) Muxing mode : Packed bitstream Codec ID : DX50 Codec ID/Hint : DivX 5 Duration : 13mn 13s Bit rate : 1 448 Kbps Width : 640 pixels Height : 480 pixels Display aspect ratio : 4:3 Frame rate : 25.000 fps Color space : YUV Chroma subsampling : 4:2:0 Bit depth : 8 bits Scan type : Progressive Compression mode : Lossy Bits/(Pixel*Frame) : 0.189 Stream size : 137 MiB (91%) Writing library : XviD 1.2.0SMP (UTC 2006-01-08) Audio #1 ID : 1 Format : MPEG Audio Format version : Version 1 Format profile : Layer 3 Mode : Joint stereo Mode extension : MS Stereo Codec ID : 55 Codec ID/Hint : MP3 Duration : 13mn 13s Bit rate mode : Constant Bit rate : 128 Kbps Channel(s) : 2 channels Sampling rate : 44.1 KHz Compression mode : Lossy Stream size : 12.1 MiB (8%) Alignment : Split accross interleaves Interleave, duration : 40 ms (1.00 video frame) Interleave, preload duration : 500 ms

Скриншоты

[Профиль] [ЛС]
Кто просматривает тему:

Форум Тема Автор Размер
BBC BBC: Удивительный мир Альбера Кана / The Wonderful World of Albert Kahn [серии 1-6, 8,9 из 10] (Мик Конфри) [2007-2008 г., Документальный, история, SATRip] DVO skorpionN 5.7 GB
BBC BBC: Удивительный мир крови / The Wonderful World of Blood with Michael Mosley (Нейтон Бадд / Nathan Budd) [2015 г., Документальный, научно-познавательный, HDTVRip-AVC 720p] skorpionN 1.49 GB
Discovery Discovery: Удивительный секс / Discovery: Strange Sex (Джонатан Группер / Jonathan Grupper) [2009, США, документальный, познавательный, физиология, психология, DVDRip] DVO reversefile 700 MB
Nat Geo Wild Nat Geo Wild: Удивительные копатели / Incredible Diggers (Jessica Connell) [2015 г., Документальный, научно-познавательный, HDTVRip-AVC 720p] skorpionN 1.65 GB
Nat Geo Wild Nat Geo Wild: Удивительные насекомые / Incredible Insects (Jessica Connell) [2015 г., Документальный, научно-познавательный, HDTVRip 720p] skorpionN 1.65 GB
Nat Geo Wild Nat Geo Wild: Удивительные пауки / Incredible Spiders (Jessica Connell) [2015 г., Документальный, научно-познавательный, HDTVRip 720p] skorpionN 1.34 GB
Мировая классика Джеймс Хэрриот - Записки ветеринара 02, О всех созданиях, прекрасных и удивительных [Герасимов Вячеслав, 2015 г., 96 kbps, MP3] Garik014 579 MB
Разная литература Майк Голдсмит - Эврика! Самые удивительные научные открытия всех времен (2014) PDF достали все 52 MB
Показать сообщения:    

Текущее время: Сегодня 06:22

Часовой пояс: GMT



Вы не можете начинать темы
Вы не можете отвечать на сообщения
Вы не можете редактировать свои сообщения
Вы не можете удалять свои сообщения
Вы не можете голосовать в опросах
Вы не можете прикреплять файлы к сообщениям
Вы не можете скачивать файлы