Удивительное воскресенье (Ченек Дуба) [1957, Приключения, семейный, SATRip]

 
Автор Сообщение

reversefile ®

Пол:

Стаж: 4 года 5 месяцев

Сообщений: 842

Откуда: ReverseFile.org



Награды: Нет

Торрент-статистика

Создавать темы 25-Июл-2014 01:16

[Цитировать]

Удивительное воскресенье

Другое название: В шесть утра на аэродроме
Жанр: Приключения, семейный
Год выпуска: 1957
Страна: СССР, Чехословакия
Производство: Баррандов, киностудия им. М.Горького
Продолжительность: 01:10:36

Режиссёр: Ченек Дуба
В ролях: Николай Крючков, Томаш Седлачек, Вова Силуянов, Марк Бернес, Мирослав Душан Гомола, Яна Дитетова, Василий Нещипленко, Юрий Саранцев, Лилия Юдина
Описание: Рано утром 28 июня 1957 года пражские пионеры провожали своих соотечественников в Москву на открытие VI Всемирного фестиваля молодёжи. Среди пионеров был и школьник Пепичек. Случайно Пепичек оказался пассажиром ТУ-104. Обнаружив «зайца», команда самолёта решила доставить мальчика в Прагу вечерним рейсом. В Москве, чтобы не тратить драгоценного времени, Пепичек отправился гулять по праздничным улицам и площадям. Сколько интересного увидел он здесь!

Доп. информация: КИНО-ТЕАТР.ru
Благодарность за рип: Slavnus


Качество видео: SATRip
Формат видео: AVI
Видео: DivX 5 720x544 25fps 1300 kbps
Аудио: MP3 48000Hz stereo 128kbps

MediaInfo

Complete name : Удивительное воскресенье (1957).avi
Format : AVI
Format/Info : Audio Video Interleave
File size : 726 MiB
Duration : 1h 10mn
Overall bit rate : 1 438 Kbps
Video
ID : 0
Format : MPEG-4 Visual
Format settings, BVOP : Yes
Format settings, QPel : No
Format settings, GMC : No warppoints
Format settings, Matrix : Default (H.263)
Codec ID : DX50
Codec ID/Hint : DivX 5
Duration : 1h 10mn
Bit rate : 1 300 Kbps
Width : 720 pixels
Height : 544 pixels
Display aspect ratio : 4:3
Frame rate : 25.000 fps
Color space : YUV
Chroma subsampling : 4:2:0
Bit depth : 8 bits
Scan type : Progressive
Compression mode : Lossy
Bits/(Pixel*Frame) : 0.133
Stream size : 657 MiB (90%)
Title : Video
Writing library : DivX 2682
Audio
ID : 1
Format : MPEG Audio
Format version : Version 1
Format profile : Layer 3
Mode : Joint stereo
Codec ID : 55
Codec ID/Hint : MP3
Duration : 1h 10mn
Bit rate mode : Constant
Bit rate : 128 Kbps
Channel(s) : 2 channels
Sampling rate : 48.0 KHz
Compression mode : Lossy
Stream size : 64.6 MiB (9%)
Alignment : Split accross interleaves
Interleave, duration : 40 ms (1.00 video frame)
Interleave, preload duration : 500 ms
Title : Audio - en-US01

Скриншоты




[Профиль] [ЛС]

Создавать темы 06-Авг-2015 22:06 (спустя 1 год)

Топик был перенесен из форума Кино СССР в форум Кино СССР
sergej644
 
Кто просматривает тему:

Форум Тема Автор Размер
BBC BBC: Удивительный мир Альбера Кана / The Wonderful World of Albert Kahn [серии 1-6, 8,9 из 10] (Мик Конфри) [2007-2008 г., Документальный, история, SATRip] DVO skorpionN 5.7 GB
BBC BBC: Удивительный мир крови / The Wonderful World of Blood with Michael Mosley (Нейтон Бадд / Nathan Budd) [2015 г., Документальный, научно-познавательный, HDTVRip-AVC 720p] skorpionN 1.49 GB
Discovery Discovery: Удивительный секс / Discovery: Strange Sex (Джонатан Группер / Jonathan Grupper) [2009, США, документальный, познавательный, физиология, психология, DVDRip] DVO reversefile 700 MB
Nat Geo Wild Nat Geo Wild: Удивительные копатели / Incredible Diggers (Jessica Connell) [2015 г., Документальный, научно-познавательный, HDTVRip-AVC 720p] skorpionN 1.65 GB
Nat Geo Wild Nat Geo Wild: Удивительные насекомые / Incredible Insects (Jessica Connell) [2015 г., Документальный, научно-познавательный, HDTVRip 720p] skorpionN 1.65 GB
Nat Geo Wild Nat Geo Wild: Удивительные пауки / Incredible Spiders (Jessica Connell) [2015 г., Документальный, научно-познавательный, HDTVRip 720p] skorpionN 1.34 GB
Мировая классика Джеймс Хэрриот - Записки ветеринара 02, О всех созданиях, прекрасных и удивительных [Герасимов Вячеслав, 2015 г., 96 kbps, MP3] Garik014 579 MB
Разная литература Майк Голдсмит - Эврика! Самые удивительные научные открытия всех времен (2014) PDF достали все 52 MB
Показать сообщения:    

Текущее время: Сегодня 12:51

Часовой пояс: GMT



Вы не можете начинать темы
Вы не можете отвечать на сообщения
Вы не можете редактировать свои сообщения
Вы не можете удалять свои сообщения
Вы не можете голосовать в опросах
Вы не можете прикреплять файлы к сообщениям
Вы не можете скачивать файлы