Удивительная жизнь учителей / La Vraie vie des profs (2013) BDRip 720p | P

 
Автор Сообщение

Russian Mafia ®

Пол:

Стаж: 1 год 8 месяцев

Сообщений: 4253



Награды: 10 (Подробнее)

Top Releaser 2 (Количество: 1) Top Releaser 3 (Количество: 1) Mega Seeder 3 (Количество: 1)
Торрент-статистика

Создавать темы 31-Авг-2016 15:00

[Цитировать]

Информация о фильме
Название: Удивительная жизнь учителей / Реальная жизнь учителей
Оригинальное название: La Vraie vie des profs
Год выхода: 2013
Жанр: комедия
Режиссер: Эммануэль Клотц, Альберт Перейра-Лазаро
В ролях: Люсьен Жан-Батист, Одри Флеро, Эмир Сегир, Сами Бузид, Маива Арну, Энцо Валльехо-Челотто, Виктуар Пупон, Лорен Фернандез, Паула Карвальо, Катрин Осмален, Венсан Дезанья, Дэвид Форе, Жюльен Гросси
О фильме:
Альберт и JM, два ученика пятого класса, за свое «художество» на скульптуре, которая находилась перед школой, были наказаны директором. По мнению директора, они свое мастерство должны проявлять в школьной стенгазете. Но это решение было воспринято главными героями как унижение. После короткой дискуссии с постоянными членами редколлегии было решено изменить формат газеты. А именно уйти от бумажной волокиты и организовать специальный сайт, на котором отображать частную жизнь своих учителей. Для воплощения в жизнь этой идеи главным героям придется не только отслеживать и снимать на телефон личную жизнь учителей, но и даже копаться в мусорных бачках.

Производство: Франция / 2.4.7. Films, France 2 Cinéma, Canal+
Продолжительность: 01:41:21
Перевод: профессиональный многоголосый закадровый
Файл
Качество: BDRip 720p
Формат: MKV
Видео: MPEG-4 AVC, 1280x544 (2.35:1), 23.976 fps, 4660 kbps, 0.279 bit/pixel
Аудио #1: русский, AC3 5.1, 48 kHz, 640 kbps
Аудио #2: французский, DTS 5.1, 48 kHz, 1509 kbps
Субтитры: английские вшитые отключаемые

MediaInfo

Формат : Matroska
Версия формата : Version 4 / Version 2
Размер файла : 4,82 Гбайт
Продолжительность : 1 ч. 41 м.
Общий поток : 6809 Кбит/сек
Дата кодирования : UTC 2016-08-28 22:55:14
Программа кодирования : mkvmerge v7.9.0 ('Birds') 64bit
Библиотека кодирования : libebml v1.3.1 + libmatroska v1.4.2
Видео
Идентификатор : 1
Формат : AVC
Формат/Информация : Advanced Video Codec
Профиль формата : High@L4.1
Параметр CABAC формата : Да
Параметр ReFrames формата : 5 кадров
Идентификатор кодека : V_MPEG4/ISO/AVC
Продолжительность : 1 ч. 41 м.
Битрейт : 4660 Кбит/сек
Ширина : 1280 пикселей
Высота : 544 пикселя
Соотношение сторон : 2,35:1
Режим частоты кадров : Постоянный
Частота кадров : 23,976 кадра/сек
Цветовое пространство : YUV
Субдискретизация насыщенности : 4:2:0
Битовая глубина : 8 бит
Тип развёртки : Прогрессивная
Бит/(Пиксели*Кадры) : 0.279
Размер потока : 3,20 Гбайт (66%)
Библиотека кодирования : x264 core 133 r2334 a3ac64b
Настройки программы : cabac=1 / ref=5 / deblock=1:0:0 / analyse=0x3:0x113 / me=umh / subme=8 / psy=1 / psy_rd=1.00:0.00 / mixed_ref=1 / me_range=16 / chroma_me=1 / trellis=1 / 8x8dct=1 / cqm=0 / deadzone=21,11 / fast_pskip=0 / chroma_qp_offset=-2 / threads=12 / lookahead_threads=2 / sliced_threads=0 / nr=0 / decimate=1 / interlaced=0 / bluray_compat=0 / constrained_intra=0 / bframes=3 / b_pyramid=2 / b_adapt=1 / b_bias=0 / direct=1 / weightb=1 / open_gop=0 / weightp=2 / keyint=250 / keyint_min=23 / scenecut=40 / intra_refresh=0 / rc_lookahead=40 / rc=2pass / mbtree=1 / bitrate=4660 / ratetol=1.0 / qcomp=0.60 / qpmin=0 / qpmax=69 / qpstep=4 / cplxblur=20.0 / qblur=0.5 / ip_ratio=1.40 / aq=1:1.00
Язык : French
Default : Да
Forced : Нет
Аудио #1
Идентификатор : 2
Формат : AC-3
Формат/Информация : Audio Coding 3
Расширение режима : CM (complete main)
Параметр Endianness формата : Big
Идентификатор кодека : A_AC3
Продолжительность : 1 ч. 41 м.
Вид битрейта : Постоянный
Битрейт : 640 Кбит/сек
Каналы : 6 каналов
Расположение каналов : Front: L C R, Side: L R, LFE
Частота : 48,0 КГц
Метод сжатия : С потерями
Размер потока : 464 Мбайт (9%)
Заголовок : AC3 5.1 640 kbps
Язык : Russian
Default : Да
Forced : Нет
Аудио #2
Идентификатор : 3
Формат : DTS
Формат/Информация : Digital Theater Systems
Режим : 16
Параметр Endianness формата : Big
Идентификатор кодека : A_DTS
Продолжительность : 1 ч. 41 м.
Вид битрейта : Постоянный
Битрейт : 1509 Кбит/сек
Каналы : 6 каналов
Расположение каналов : Front: L C R, Side: L R, LFE
Частота : 48,0 КГц
Битовая глубина : 24 бит
Метод сжатия : С потерями
Размер потока : 1,07 Гбайт (22%)
Заголовок : DTS 5.1 1509 kbps
Язык : French
Default : Нет
Forced : Нет
Текст
Идентификатор : 4
Формат : UTF-8
Идентификатор кодека : S_TEXT/UTF8
Идентификатор кодека/Информация : UTF-8 Plain Text
Язык : English
Default : Да
Forced : Нет
[Профиль] [ЛС]
Кто просматривает тему:

Форум Тема Автор Размер
BBC BBC: Удивительный мир Альбера Кана / The Wonderful World of Albert Kahn [серии 1-6, 8,9 из 10] (Мик Конфри) [2007-2008 г., Документальный, история, SATRip] DVO skorpionN 5.7 GB
BBC BBC: Удивительный мир крови / The Wonderful World of Blood with Michael Mosley (Нейтон Бадд / Nathan Budd) [2015 г., Документальный, научно-познавательный, HDTVRip-AVC 720p] skorpionN 1.49 GB
Discovery Discovery: Удивительный секс / Discovery: Strange Sex (Джонатан Группер / Jonathan Grupper) [2009, США, документальный, познавательный, физиология, психология, DVDRip] DVO reversefile 700 MB
Nat Geo Wild Nat Geo Wild: Удивительные копатели / Incredible Diggers (Jessica Connell) [2015 г., Документальный, научно-познавательный, HDTVRip-AVC 720p] skorpionN 1.65 GB
Nat Geo Wild Nat Geo Wild: Удивительные насекомые / Incredible Insects (Jessica Connell) [2015 г., Документальный, научно-познавательный, HDTVRip 720p] skorpionN 1.65 GB
Nat Geo Wild Nat Geo Wild: Удивительные пауки / Incredible Spiders (Jessica Connell) [2015 г., Документальный, научно-познавательный, HDTVRip 720p] skorpionN 1.34 GB
Мировая классика Джеймс Хэрриот - Записки ветеринара 02, О всех созданиях, прекрасных и удивительных [Герасимов Вячеслав, 2015 г., 96 kbps, MP3] Garik014 579 MB
Разная литература Майк Голдсмит - Эврика! Самые удивительные научные открытия всех времен (2014) PDF достали все 52 MB
Показать сообщения:    

Текущее время: Сегодня 16:51

Часовой пояс: GMT



Вы не можете начинать темы
Вы не можете отвечать на сообщения
Вы не можете редактировать свои сообщения
Вы не можете удалять свои сообщения
Вы не можете голосовать в опросах
Вы не можете прикреплять файлы к сообщениям
Вы не можете скачивать файлы