Угрызения 3: Всё, что вы можете съесть / Eating Out: All You Can Eat (Гленн Гэйлорд) [2009, США, драма, мелодрама, комедия, DVDRip] DVO + Sub Rus

 
Автор Сообщение

TorrentFilm ®

Пол:

Стаж: 2 года

Сообщений: 7741



Награды: Нет

Торрент-статистика

Создавать темы 03-Сен-2015 00:10

[Цитировать]

Угрызения 3: Всё, что вы можете съесть / Eating Out: All You Can Eat
Страна: США
Жанр: драма, мелодрама, комедия
Год выпуска: 2009
Продолжительность: 01:21:00
Перевод: Любительский (двухголосый закадровый) R.G. TheAngelOfDeath & SweetySacrifice
Cубтитры: русские (в не переведенных местах)
Оригинальная аудиодорожка: нет
Режиссер: Гленн Гэйлорд
В ролях: Сумали Монтано, Минк Стоул, Ребека Кочан, Дэниэл Скелтон, Крис Сальваторе, Майкл Е.Р. Уолкер, Джулия Чо, Лесли Джордан, Джон Сталлингс
Описание: Тиффани и её друг Кейси пытаются соблазнить Зака, используя для этого фальшивый образ в Интернете, созданный с помощью фотографий экс-бойфренда Тиффани — Райана. Всё идёт нормально, пока не появляется реальный Райан.

Качество видео: DVDRip
Формат видео: AVI
Видео: Xvid, 624x352, 23.976 fps, 1065 kbps avg
Аудио: MPEG Audio Layer 3, 48 kHz, 2 ch, 128 kbps avg
Формат субтитров: softsub (SRT)

MediaInfo

Общее
Полное имя : Eating_Out_3_TheAngelOfdeath&SweetySacrifice.avi
Формат : AVI
Формат/Информация : Audio Video Interleave
Размер файла : 698 Мбайт
Продолжительность : 1 ч. 21 м.
Общий поток : 1202 Кбит/сек
Программа кодирования : VirtualDubMod 1.5.10.2 (build 2540/release)
Библиотека кодирования : VirtualDubMod build 2540/release
Видео
Идентификатор : 0
Формат : MPEG-4 Visual
Профиль формата : Advanced Simple@L5
Параметр BVOP формата : 1
Параметр QPel формата : Нет
Параметр GMC формата : Без точки перехода
Параметр матрицы формата : Default (H.263)
Режим смешивания : Сжатый битовый поток
Идентификатор кодека : XVID
Идентификатор кодека/Подсказка : XviD
Продолжительность : 1 ч. 21 м.
Битрейт : 1065 Кбит/сек
Ширина : 624 пикселя
Высота : 352 пикселя
Соотношение сторон : 16:9
Частота кадров : 23,976 кадра/сек
Цветовое пространство : YUV
Субдискретизация насыщенности : 4:2:0
Битовая глубина : 8 бит
Тип развёртки : Прогрессивная
Метод сжатия : С потерями
Бит/(Пиксели*Кадры) : 0.202
Размер потока : 618 Мбайт (89%)
Библиотека кодирования : XviD 1.2.1 (UTC 2008-12-04)
Аудио
Идентификатор : 1
Формат : MPEG Audio
Версия формата : Version 1
Профиль формата : Layer 3
Режим : Joint stereo
Расширение режима : MS Stereo
Идентификатор кодека : 55
Идентификатор кодека/Подсказка : MP3
Продолжительность : 1 ч. 21 м.
Вид битрейта : Постоянный
Битрейт : 128 Кбит/сек
Каналы : 2 канала
Частота : 48,0 КГц
Метод сжатия : С потерями
Размер потока : 74,3 Мбайт (11%)
Выравнивание : Соединение по промежуткам
Продолжительность промежутка : 42 мс. (1,00 видеокадр)
Время предзагрузки промежутка : 504 мс.

Скриншот c названием фильма

Скриншоты


[Профиль] [ЛС]

Создавать темы 12-Июн-2016 08:13 (спустя 9 месяцев 9 дней)

Топик был перенесен из форума Фильмы 2011 года в форум Фильмы 2009 года
Russian Mafia
 
Кто просматривает тему:

Показать сообщения:    

Текущее время: Сегодня 09:10

Часовой пояс: GMT



Вы не можете начинать темы
Вы не можете отвечать на сообщения
Вы не можете редактировать свои сообщения
Вы не можете удалять свои сообщения
Вы не можете голосовать в опросах
Вы не можете прикреплять файлы к сообщениям
Вы не можете скачивать файлы