Угнать за 60 секунд / Gone in Sixty Seconds (2000) BDRip 720p от New-Team | D, A

 
Автор Сообщение

sergej644 ®

Пол:

Стаж: 4 года 11 месяцев

Сообщений: 6045

Откуда: Soviet Union



Награды: Нет

Торрент-статистика

Создавать темы 08-Фев-2015 13:20

[Цитировать]

«Преступление на пределе скорости»- Страна: США
Производство: Jerry Bruckheimer Films, Touchstone Pictures
Жанр: боевик, триллер, криминал
Год выпуска: 2000
Продолжительность: 01:57:56
Перевод: Профессиональный (полное дублирование), Авторский (одноголосый закадровый) Ю.Живов, А.Гаврилов
Оригинальная аудиодорожка: английский
Cубтитры: русский, английский
Режиссер: Доминик Сена / Dominic Sena
В ролях:
Николас Кейдж, Анджелина Джоли, Джованни Рибизи, Т.Дж. Кросс, Уильям Ли Скотт, Скотт Каан, Джеймс Дювал, Уилл Паттон, Делрой Линдо, Тимоти Олифэнт, Чи МакБрайд, Роберт Дюваль, Винни Джонс, Кристофер Экклстон, Грэйс Зэбриски, Майк Оуэн, Джейм Бергман, Гарри Ван Горкум, Фрэнсис Фишер...
Роли дублировали:
Петр Семак, Евгения Игумнова, Евгений Иванов, Андрей Толубеев, Валерий Кухарешин...
Описание:
Что можно успеть за 60 секунд? Выкурить сигарету или выпить чашку кофе. Но только один профессионал в мире, легендарный вор по кличке Мемфис, может за считанные секунды угнать любой автомобиль. Однако на этот раз ему предстоит сделать невозможное: чтобы спасти своего брата, Мемфис должен за одну ночь угнать 50 первоклассных машин. Чтобы вырваться из двойного капкана мафии и полиции, он должен следовать одному принципу — не останавливаться…- -Исходник: BDRemux 1080p
Тип релиза: BDRip 720p
Контейнер: MKV
Видео: 1280x544 (2,35:1), 23,976 fps, H264 ~ 3505 kbps avg, 0.210 bit/pixel
Аудио: 48 kHz, Dolby Digital AC3 5.1, 448 kbps DUB
Аудио: 48 kHz, Dolby Digital AC3 5.1, 448 kbps Живов
Аудио: 48 kHz, Dolby Digital AC3 5.1, 448 kbps Гаврилов
Аудио: 48 kHz, Dolby Digital AC3 5.1, 448 kbps Английский
Оригинальная навигация по главам: есть
Субтитры: SoftSub (srt)
Раздача от:

MediaInfo

Общее
Полное имя : Ugnat.za.60.sekund.2000.BDRip720p_[New-team]_by_AVP_Studio.mkv
Формат : Matroska
Версия формата : Version 4 / Version 2
Размер файла : 4,37 Гбайт
Продолжительность : 1 ч. 58 м.
Общий поток : 5296 Кбит/сек
Название фильма : Ugnat.za.60.sekund.2000.BDRip720p_[New-team]_by_AVP_Studio
Дата кодирования : UTC 2014-09-17 21:00:07
Программа кодирования : mkvmerge v7.2.0 ('On Every Street') 64bit built on Sep 13 2014 15:52:10
Библиотека кодирования : libebml v1.3.0 + libmatroska v1.4.1
DURATION : 01:48:21.769000000
NUMBER_OF_FRAMES : 1346
NUMBER_OF_BYTES : 58645
_STATISTICS_WRITING_APP : mkvmerge v7.2.0 ('On Every Street') 64bit built on Sep 13 2014 15:52:10
_STATISTICS_WRITING_DATE_UTC : 2014-09-17 21:00:07
_STATISTICS_TAGS : BPS DURATION NUMBER_OF_FRAMES NUMBER_OF_BYTES
Видео
Идентификатор : 1
Формат : AVC
Формат/Информация : Advanced Video Codec
Профиль формата : High@L4.1
Параметр CABAC формата : Да
Параметр ReFrames формата : 6 кадров
Идентификатор кодека : V_MPEG4/ISO/AVC
Продолжительность : 1 ч. 58 м.
Битрейт : 3505 Кбит/сек
Ширина : 1280 пикселей
Высота : 544 пикселя
Соотношение сторон : 2,35:1
Режим частоты кадров : Постоянный
Частота кадров : 23,976 кадра/сек
Цветовое пространство : YUV
Субдискретизация насыщенности : 4:2:0
Битовая глубина : 8 бит
Тип развёртки : Прогрессивная
Бит/(Пиксели*Кадры) : 0.210
Размер потока : 2,80 Гбайт (64%)
Заголовок : Источник BDRemux
Библиотека кодирования : x264 core 138 r2356 a1d3d17
Настройки программы : cabac=1 / ref=6 / deblock=1:-3:-3 / analyse=0x3:0x113 / me=umh / subme=10 / psy=1 / psy_rd=1.00:0.05 / mixed_ref=1 / me_range=32 / chroma_me=1 / trellis=2 / 8x8dct=1 / cqm=0 / deadzone=21,11 / fast_pskip=0 / chroma_qp_offset=-3 / threads=6 / lookahead_threads=1 / sliced_threads=0 / nr=0 / decimate=0 / interlaced=0 / bluray_compat=0 / constrained_intra=0 / bframes=8 / b_pyramid=2 / b_adapt=2 / b_bias=0 / direct=3 / weightb=1 / open_gop=0 / weightp=2 / keyint=240 / keyint_min=24 / scenecut=40 / intra_refresh=0 / rc_lookahead=40 / rc=2pass / mbtree=1 / bitrate=3505 / ratetol=1.0 / qcomp=0.60 / qpmin=10 / qpmax=51 / qpstep=4 / cplxblur=20.0 / qblur=0.5 / vbv_maxrate=50000 / vbv_bufsize=50000 / nal_hrd=none / ip_ratio=1.40 / aq=1:0.80
Язык : English
Default : Да
Forced : Нет
Аудио #1
Идентификатор : 2
Формат : AC-3
Формат/Информация : Audio Coding 3
Расширение режима : CM (complete main)
Параметр Endianness формата : Big
Идентификатор кодека : A_AC3
Продолжительность : 1 ч. 58 м.
Вид битрейта : Постоянный
Битрейт : 448 Кбит/сек
Каналы : 6 каналов
Расположение каналов : Front: L C R, Side: L R, LFE
Частота : 48,0 КГц
Битовая глубина : 16 бит
Метод сжатия : С потерями
Размер потока : 378 Мбайт (8%)
Заголовок : Источник BDRemux DUB
Язык : Russian
Default : Да
Forced : Нет
Аудио #2
Идентификатор : 3
Формат : AC-3
Формат/Информация : Audio Coding 3
Расширение режима : CM (complete main)
Параметр Endianness формата : Big
Идентификатор кодека : A_AC3
Продолжительность : 1 ч. 58 м.
Вид битрейта : Постоянный
Битрейт : 448 Кбит/сек
Каналы : 6 каналов
Расположение каналов : Front: L C R, Side: L R, LFE
Частота : 48,0 КГц
Битовая глубина : 16 бит
Метод сжатия : С потерями
Размер потока : 378 Мбайт (8%)
Заголовок : Источник BDRemux Живов
Язык : Russian
Default : Нет
Forced : Нет
Аудио #3
Идентификатор : 4
Формат : AC-3
Формат/Информация : Audio Coding 3
Расширение режима : CM (complete main)
Параметр Endianness формата : Big
Идентификатор кодека : A_AC3
Продолжительность : 1 ч. 58 м.
Вид битрейта : Постоянный
Битрейт : 448 Кбит/сек
Каналы : 6 каналов
Расположение каналов : Front: L C R, Side: L R, LFE
Частота : 48,0 КГц
Битовая глубина : 16 бит
Метод сжатия : С потерями
Размер потока : 378 Мбайт (8%)
Заголовок : Источник BDRemux Гаврилов
Язык : Russian
Default : Нет
Forced : Нет
Аудио #4
Идентификатор : 5
Формат : AC-3
Формат/Информация : Audio Coding 3
Расширение режима : CM (complete main)
Параметр Endianness формата : Big
Идентификатор кодека : A_AC3
Продолжительность : 1 ч. 58 м.
Вид битрейта : Постоянный
Битрейт : 448 Кбит/сек
Каналы : 6 каналов
Расположение каналов : Front: L C R, Side: L R, LFE
Частота : 48,0 КГц
Битовая глубина : 16 бит
Метод сжатия : С потерями
Размер потока : 378 Мбайт (8%)
Заголовок : Источник BDRemux
Язык : English
Default : Нет
Forced : Нет
Текст #1
Идентификатор : 6
Формат : UTF-8
Идентификатор кодека : S_TEXT/UTF8
Идентификатор кодека/Информация : UTF-8 Plain Text
Заголовок : Источник BDRemux SoftSub (srt)
Язык : Russian
Default : Нет
Forced : Нет
Текст #2
Идентификатор : 7
Формат : UTF-8
Идентификатор кодека : S_TEXT/UTF8
Идентификатор кодека/Информация : UTF-8 Plain Text
Заголовок : Источник BDRemux SoftSub (srt)
Язык : English
Default : Нет
Forced : Нет
Меню
00:00:00.000 : en:Opening Credits/Family Album
00:03:24.413 : en:Boost Gone Bad
00:08:45.066 : en:Message to Memphis
00:11:54.422 : en:Emotional Rescue
00:16:54.180 : en:Brotherly Love
00:18:42.872 : en:Police Hospitality
00:23:36.332 : en:Second Chances
00:26:49.691 : en:Old Friends
00:31:58.250 : en:Turf War
00:33:36.973 : en:Free Advice
00:36:23.431 : en:Tough Decision
00:38:42.320 : en:Trap Set
00:39:33.705 : en:Complicated List
00:42:11.362 : en:Catching a Thief
00:44:18.864 : en:The Scout
00:48:42.545 : en:Johnny B. Good
00:52:55.506 : en:Unexpected Visitor
00:58:43.854 : en:"Hello Ladies"
01:06:14.887 : en:Dirty Girls
01:11:07.388 : en:Back to Work
01:13:43.169 : en:Cars or Sex?
01:17:29.979 : en:Decoy
01:19:38.524 : en:Gotcha!
01:21:23.587 : en:Business Risk
01:26:47.118 : en:Eleanor
01:32:52.233 : en:Lesson Learned
01:34:18.653 : en:Just a Scratch
01:38:27.818 : en:Big Jump
01:40:06.417 : en:Time's Up
01:44:12.705 : en:Painful Mistake
01:48:39.263 : en:BBQ
01:51:48.160 : en:End Credits

Скриншоты

[Профиль] [ЛС]
Кто просматривает тему:

Форум Тема Автор Размер
Фильмы (HD Rips | 720p, 1080p) Угнать за 60 секунд / Gone in Sixty Seconds (2000) BDRip 1080p | 60 fps | D sergej644 10.05 GB
Показать сообщения:    

Текущее время: Сегодня 00:20

Часовой пояс: GMT



Вы не можете начинать темы
Вы не можете отвечать на сообщения
Вы не можете редактировать свои сообщения
Вы не можете удалять свои сообщения
Вы не можете голосовать в опросах
Вы не можете прикреплять файлы к сообщениям
Вы не можете скачивать файлы