Угнать за 60 секунд / Gone in Sixty Seconds (2000) BDRip 1080p | 60 fps | D

 
Автор Сообщение

sergej644 ®

Пол:

Стаж: 4 года 11 месяцев

Сообщений: 6043

Откуда: Soviet Union



Награды: Нет

Торрент-статистика

Создавать темы 15-Ноя-2014 14:43

[Цитировать]

-Название: Угнать за 60 секунд
Оригинальное название: Gone in Sixty Seconds
Год выпуска: 2000
Страна: США
Жанр: боевик, триллер, криминал
Продолжительность: 01:58:56
Перевод: Дубляж - [Лицензия]
Субтитры: русские (Полные), английские (Полные)-Режиссер: Доминик Сена / Dominic Sena-В ролях: Николас Кейдж (Memphis Raines), Анджелина Джоли (Sara «Sway» Wayland), Джованни Рибизи (Kip Raines), Роберт Дювалл (Otto Halliwell), Уилл Пэттон (Atley Jackson), Делрой Линдо (Det. Roland Castlebeck), Тимоти Олифант (Detective Drycoff), Скотт Каан (Tumbler), Кристофер Экклстон (Raymond Calitri), Винни Джонс (The Sphinx), Уильям Ли Скотт (Toby), Джеймс Дювал (Freb)-Описание:
Что можно успеть за 60 секунд? Выкурить сигарету или выпить чашку кофе. Но только один профессионал в мире, легендарный вор по кличке Мемфис, может за считанные секунды угнать любой автомобиль.
Однако на этот раз ему предстоит сделать невозможное: чтобы спасти своего брата, Мемфис должен за одну ночь угнать 50 первоклассных машин. Чтобы вырваться из двойного капкана мафии и полиции, он должен следовать одному принципу - не останавливаться...-Рейтинг

imdb.com: 6.40 (181 133)
MPAA: PG-13 - Детям до 13 лет просмотр не желателен-Автор рипа:Tiberiumsun69-Качество: BDRip 1080p
Формат: MKV
Видео кодек: AVC
Аудио кодек:AC3
Видео:1920x816, 10573 kbps, 59,940 fps
Аудио №1: русский/ 5.1/ 48 kHz/ 640 kbps/ AC3/ |Дубляж BD CEE|
Аудио №2: английский/ 5.1/ 48 kHz/ 640 kbps/ AC3
Навигация по главам: есть
-

MI

General
Unique ID : 221101837029528808808319214497862645611 (0xA656AA34E1DD5644943F7F1B94E1F76B)
Название : A:1080p 60fpsУгнать за 60 секунд 1080p 60fps.mkv
Формат : Matroska
Формат version : Version 4 / Version 2
Размер файла : 10.0 GiB
Длительность : 1h 58mn
Общий Битрейт : 12.1 Mbps
Encoded date : UTC 2014-08-07 10:41:16
Создано приложением : mkvmerge v6.9.1 ('Blue Panther') 64bit built on Apr 18 2014 18:23:38
Writing library : libebml v1.3.0 + libmatroska v1.4.1
Video
ID : 1
Формат : AVC
Формат/Info : Advanced Video Кодек
Формат profile : High@L4.1
Формат настройки, CABAC : Yes
Формат настройки, ReFrames : 4 frames
Кодек ID : V_MPEG4/ISO/AVC
Длительность : 1h 58mn
Битрейт : 10.6 Mbps
Width : 1 920 пикселей
Высота : 816 пикселей
Соотношение кадра : 2.35:1
Частота кадров : 59.940 fps
Цветопередача : YUV
Chroma subsampling : 4:2:0
Разрядность : 8 bits
Тип сканирования : Progressive
Bits/(Pixel*Frame) : 0.113
Размер потока : 8.78 GiB (87%)
Writing library : x264 core 130 r2273 b3065e6
Encoding настройки : cabac=1 / ref=4 / deblock=1:-1:-1 / analyse=0x3:0 / me=umh / subme=9 / psy=1 / psy_rd=1.00:0.10 / mixed_ref=1 / me_range=42 / chroma_me=0 / trellis=2 / 8x8dct=1 / cqm=0 / deadzone=21,11 / fast_pskip=0 / chroma_qp_offset=-3 / threads=12 / lookahead_threads=1 / sliced_threads=0 / nr=0 / decimate=0 / interlaced=0 / bluray_compat=0 / constrained_intra=0 / bframes=5 / b_pyramid=2 / b_adapt=2 / b_bias=0 / direct=1 / weightb=1 / open_gop=0 / weightp=2 / keyint=594 / keyint_min=59 / scenecut=40 / intra_refresh=0 / rc=crf / mbtree=0 / crf=15.0 / qcomp=0.60 / qpmin=0 / qpmax=69 / qpstep=4 / ip_ratio=1.40 / pb_ratio=1.30 / aq=0
Язык : English
Default : Yes
Forced : No
Audio #1
ID : 2
Формат : AC-3
Формат/Info : Audio Coding 3
Расширение режима : CM (complete main)
Кодек ID : A_AC3
Длительность : 1h 58mn
Битрейт mode : Constant
Битрейт : 640 Kbps
Каналы(s) : 6 каналов
Каналы positions : Front: L C R, Side: L R, LFE
Частота : 48.0 KHz
Разрядность : 16 bits
Режим сжатия : Lossy
Размер потока : 544 MiB (5%)
Title : Дубляж BD CEE
Язык : Russian
Default : No
Forced : No
Audio #2
ID : 3
Формат : AC-3
Формат/Info : Audio Coding 3
Расширение режима : CM (complete main)
Кодек ID : A_AC3
Длительность : 1h 58mn
Битрейт mode : Constant
Битрейт : 640 Kbps
Каналы(s) : 6 каналов
Каналы positions : Front: L C R, Side: L R, LFE
Частота : 48.0 KHz
Разрядность : 16 bits
Режим сжатия : Lossy
Размер потока : 544 MiB (5%)
Title : Original
Язык : English
Default : No
Forced : No
Text #1
ID : 4
Формат : UTF-8
Кодек ID : S_TEXT/UTF8
Кодек ID/Info : UTF-8 Plain Text
Title : Полные
Язык : Russian
Default : No
Forced : No
Text #2
ID : 5
Формат : UTF-8
Кодек ID : S_TEXT/UTF8
Кодек ID/Info : UTF-8 Plain Text
Title : Полные
Язык : English
Default : No
Forced : No
Menu
00:00:00.000 : en:Opening Credits/Family Album
00:03:24.413 : en:Boost Gone Bad
00:08:45.066 : en:Message to Memphis
00:11:54.422 : en:Emotional Rescue
00:16:54.180 : en:Brotherly Love
00:18:42.872 : en:Police Hospitality
00:23:36.332 : en:Second Chances
00:26:49.691 : en:Old Friends
00:31:58.250 : en:Turf War
00:33:36.973 : en:Free Advice
00:36:23.431 : en:Tough Decision
00:38:42.320 : en:Trap Set
00:39:33.705 : en:Complicated List
00:42:11.362 : en:Catching a Thief
00:44:18.864 : en:The Scout
00:48:42.545 : en:Johnny B. Good
00:52:55.506 : en:Unexpected Visitor
00:58:43.854 : en:"Hello Ladies"
01:06:14.887 : en:Dirty Girls
01:11:07.388 : en:Back to Work
01:13:43.169 : en:Cars or Sex?
01:17:29.979 : en:Decoy
01:19:38.524 : en:Gotcha!
01:21:23.587 : en:Business Risk
01:26:47.118 : en:Eleanor
01:32:52.233 : en:Lesson Learned
01:34:18.653 : en:Just a Scratch
01:38:27.818 : en:Big Jump
01:40:06.417 : en:Time's Up
01:44:12.705 : en:Painful Mistake
01:48:39.263 : en:BBQ
01:51:48.160 : en:End Credits

Скриншоты

[Профиль] [ЛС]
Кто просматривает тему:

Форум Тема Автор Размер
Фильмы (HD Rips | 720p, 1080p) Угнать за 60 секунд / Gone in Sixty Seconds (2000) BDRip 720p от New-Team | D, A sergej644 4.37 GB
Показать сообщения:    

Текущее время: Сегодня 22:32

Часовой пояс: GMT



Вы не можете начинать темы
Вы не можете отвечать на сообщения
Вы не можете редактировать свои сообщения
Вы не можете удалять свои сообщения
Вы не можете голосовать в опросах
Вы не можете прикреплять файлы к сообщениям
Вы не можете скачивать файлы