Угли / Embers (2015) WEB-DL 1080р | L1

 
Автор Сообщение

достали все ®

Пол:

Стаж: 1 год 8 месяцев

Сообщений: 6581



Награды: 12 (Подробнее)

Mega Releaser 1 (Количество: 1) Mega Releaser 3 (Количество: 1) Mega Seeder 5 (Количество: 1)
Торрент-статистика

Создавать темы 18-Авг-2016 10:16

[Цитировать]

Угли / Embers
Страна: Польша США
Производство: Bunker Features, Chaotic Good, Papaya Films
Год выпуска: 2015
Жанр: фантастика, драма
Продолжительность: 01:26:00
Режиссер: Клэр Карре / Claire Carré
Авторы сценария: Чарльз Спано, Claire Carré
В ролях: Джейсон Риттер, Ива Гочева, Грета Фернандез, Такер Смоллвуд, Карл Глусман, Роберто Котс, Доминик Суэйн, Деррик Аги
Описание: Антология, состоящая из нескольких научно-фантастических историй об апокалипсисе...

Перевод: Любительский (одноголосый, закадровый) | Павел Морозов (aka PashaUp)
Субтитры: русские, английские-Качество: WEB-DL 1080р
Формат: МКV
Видео кодек: AVC
Аудио кодек: АС3
Видео: 1920x1038 (1.85:1), 23.976 fps, MPEG-4 AVC ~5 167 kbps avg
Аудио №1: 48.0 kHz, AC3 Dolby Digital, 3/2 (L,C,R,l,r) + LFE ch, ~384 kbps | RUS
Аудио №2: 48.0 kHz, AC3 Dolby Digital, 3/2 (L,C,R,l,r) + LFE ch, ~384 kbps | ENG
Формат субтитров: UTF-8 Plain Text
Дата премьеры (мир): 18 сентября 2015

Media Info

General
Уникальный идентификатор : 235170153186796349391699722573709030533 (0xB0EC1FBEC84B8EC08714E593CD1BB485)
Полное имя : Угли.2015.1080p.mkv
Формат : Matroska
Версия формата : Version 4 / Version 2
Размер файла : 3,57 Гбайт
Продолжительность : 1 ч. 26 м.
Общий поток : 5938 Кбит/сек
Дата кодирования : UTC 2016-08-16 17:05:03
Программа кодирования : mkvmerge v9.3.1 ('Mask Machine') 64bit
Библиотека кодирования : libebml v1.3.4 + libmatroska v1.4.5
Обложка : Yes
Видео
Идентификатор : 1
Формат : AVC
Формат/Информация : Advanced Video Codec
Профиль формата : High@L4
Параметр CABAC формата : Да
Параметр ReFrames формата : 4 кадра
Идентификатор кодека : V_MPEG4/ISO/AVC
Продолжительность : 1 ч. 26 м.
Битрейт : 5167 Кбит/сек
Ширина : 1920 пикселей
Высота : 1038 пикселей
Соотношение сторон : 1,85:1
Режим частоты кадров : Постоянный
Частота кадров : 23,976 (23976/1000) кадра/сек
Цветовое пространство : YUV
Субдискретизация насыщенности : 4:2:0
Битовая глубина : 8 бит
Тип развёртки : Прогрессивная
Бит/(Пиксели*Кадры) : 0.108
Размер потока : 3,10 Гбайт (87%)
Заголовок : Embers.2015.1080p.WEB-DL.DD5.1.H264-RARBG
Язык : English
Default : Да
Forced : Нет
Цветовой диапазон : Limited
Основные цвета : BT.709
Характеристики трансфера : BT.709
Коэффициенты матрицы : BT.709
Аудио #1
Идентификатор : 2
Формат : AC-3
Формат/Информация : Audio Coding 3
Расширение режима : CM (complete main)
Параметр Endianness формата : Big
Идентификатор кодека : A_AC3
Продолжительность : 1 ч. 26 м.
Вид битрейта : Постоянный
Битрейт : 384 Кбит/сек
Каналы : 6 каналов
Расположение каналов : Front: L C R, Side: L R, LFE
Частота : 48,0 КГц
Частота кадров : 31,250 кадров/сек (1536 spf)
Метод сжатия : С потерями
Размер потока : 236 Мбайт (6%)
Заголовок : Russian
Язык : Russian
Default : Да
Forced : Да
Аудио #2
Идентификатор : 4
Формат : AC-3
Формат/Информация : Audio Coding 3
Расширение режима : CM (complete main)
Параметр Endianness формата : Big
Идентификатор кодека : A_AC3
Продолжительность : 1 ч. 26 м.
Вид битрейта : Постоянный
Битрейт : 384 Кбит/сек
Каналы : 6 каналов
Расположение каналов : Front: L C R, Side: L R, LFE
Частота : 48,0 КГц
Частота кадров : 31,250 кадров/сек (1536 spf)
Метод сжатия : С потерями
Размер потока : 236 Мбайт (6%)
Заголовок : English
Язык : English
Default : Нет
Forced : Нет
Текст #1
Идентификатор : 3
Формат : UTF-8
Идентификатор кодека : S_TEXT/UTF8
Идентификатор кодека/Информация : UTF-8 Plain Text
Продолжительность : 1 ч. 21 м.
Битрейт : 34 бит/сек
Count of elements : 528
Размер потока : 20,4 Кбайт (0%)
Заголовок : Rus_sub
Язык : Russian
Default : Да
Forced : Нет
Текст #2
Идентификатор : 5
Формат : UTF-8
Идентификатор кодека : S_TEXT/UTF8
Идентификатор кодека/Информация : UTF-8 Plain Text
Продолжительность : 1 ч. 21 м.
Битрейт : 21 бит/сек
Count of elements : 483
Размер потока : 12,6 Кбайт (0%)
Заголовок : Eng_sub
Язык : English
Default : Нет
Forced : Нет
Меню
00:00:00.000 : en:Now Is Now
00:09:26.000 : en:Memory Test
00:14:09.000 : en:Canned Food
00:21:31.000 : en:New Names
00:27:05.000 : en:Playtime
00:34:50.000 : en:High Art
00:39:14.000 : en:Cathedral
00:45:52.000 : en:A New Friend
00:54:01.000 : en:Chaos
00:59:59.000 : en:Just a Matter of Time
01:06:37.000 : en:Everything Will Disappear
01:12:07.000 : en:Multiple Choices
01:17:26.000 : en:The End as Beginning

Скриншоты

[Профиль] [ЛС]
Кто просматривает тему:

Форум Тема Автор Размер
Фильмы 2015 года Угли / Embers (2015) DVDRip | L1 Russian Mafia 1007 MB
Показать сообщения:    

Текущее время: Сегодня 02:17

Часовой пояс: GMT



Вы не можете начинать темы
Вы не можете отвечать на сообщения
Вы не можете редактировать свои сообщения
Вы не можете удалять свои сообщения
Вы не можете голосовать в опросах
Вы не можете прикреплять файлы к сообщениям
Вы не можете скачивать файлы