Убрать из друзей / Unfriended (2014) DVD5

 
Автор Сообщение

Russian Mafia ®

Пол:

Стаж: 1 год 8 месяцев

Сообщений: 4252



Награды: 10 (Подробнее)

Mega Seeder 5 (Количество: 1) Top Releaser 4 (Количество: 1) Mega Seeder 1 (Количество: 1)
Торрент-статистика

Создавать темы 29-Мар-2016 11:42

[Цитировать]

--Информация о фильме
Название: Убрать из друзей
Оригинальное название: Unfriended
Год выхода: 2014
Жанр: ужасы, фэнтези, триллер, детектив
Режиссер: Леван Габриадзе
В ролях: Шелли Хенниг, Моусес Сторм, Рени Олстэд, Уилл Пельтц, Джакоб Уайсоки, Кортни Хэлверсон, Хезер Соссамэн, Мэттью Борер, Мики Ривер, Кэл Барнс-О фильме:
Обычный вечер после школы. К скайпу влюбленных Блэр и Митча подключаются друзья — Адам, Джес, Кен и Вэл… и кто-то седьмой с ником Billy227. Все уверены, что это компьютерный глюк, пока неизвестный не начинает им писать. Билли хочет знать, кто выложил в Сеть скандальное видео с их одноклассницей Лорой Барнс, из-за которого девушка покончила с собой. И он готов выяснить это любой ценой. Друзьям кажется, что можно просто выйти из чата, но это только кажется.- -Страна: США, Россия
Студия: Базелевс Продакшн
Продолжительность: 79 мин. / 01:19
Перевод: полное дублирование-Файл
Кодек: MPEG2
Качество: DVD5 (сжатый)
Видео: PAL 16:9 ([email protected]/* */) VBR 6639 Kbps, 25.000 fps
Аудио 1: Dolby AC3, 6 ch, 48.0 KHz, 384 Kbps (русский, английский, польский)
Аудио 2: Dolby AC3, 2 ch, 48.0 KHz, 192 Kbps (английский)
Субтитры: русские, английские, арабские, болгарские, венгерские, голландские, греческие, датские, исландские, норвежские, польские, португальские, румынские, турецкие, финские, хинди, чешские, шведские--

Процесс изготовления диска

Исходник: Убрать из друзей / Unfriended (2014) DVD9 | лицензия
Удалены: предупреждающие надписи, венгерская звуковая дорожка (в меню кнопки затерты). Команды диска переписаны заново, оставлен один VTS.
Видео диска не сжималось!
Меню: статичное, недействующие кнопки затерты и закрыты.
Обработка и сжатие: DVD ReMake Pro + Работа с меню (Adobe PhotoShop и MuxMan).
Автор релиза: J9-1000

MediaInfo

Общее
Полное имя : D:Unfriended (2014) DVD5VIDEO_TSVTS_01_3.VOB
Формат : MPEG-PS
Размер файла : 1024 Мбайт
Продолжительность : 17 м.
Режим общего битрейта : Переменный
Общий поток : 8145 Кбит/сек
Видео
Идентификатор : 224 (0xE0)
Формат : MPEG Video
Версия формата : Version 2
Профиль формата : Main@Main
Параметр BVOP формата : Да
Параметр матрицы формата : Выборочная
Параметр GOP формата : M=3, N=12
Структура изображения : Frame
Продолжительность : 17 м.
Вид битрейта : Переменный
Битрейт : 6639 Кбит/сек
Максимальный битрейт : 9800 Кбит/сек
Ширина : 720 пикселей
Высота : 576 пикселей
Соотношение сторон : 16:9
Частота кадров : 25,000 кадров/сек
Стандарт вещания : PAL
Цветовое пространство : YUV
Субдискретизация насыщенности : 4:2:0
Битовая глубина : 8 бит
Тип развёртки : Чересстрочная
Порядок развёртки : Верхнее поле первое
Метод сжатия : С потерями
Бит/(Пиксели*Кадры) : 0.640
Временной код первого кадра : 01:36:44:21
Оригинал временного кода : Group of pictures header
GOP, открыто/закрыто : Открыто
Размер потока : 834 Мбайт (81%)
Аудио #1
Идентификатор : 189 (0xBD)-128 (0x80)
Формат : AC-3
Формат/Информация : Audio Coding 3
Расширение режима : CM (complete main)
Параметр Endianness формата : Big
Режим смешивания : DVD-Video
Продолжительность : 17 м.
Вид битрейта : Постоянный
Битрейт : 384 Кбит/сек
Каналы : 6 каналов
Расположение каналов : Front: L C R, Side: L R, LFE
Частота : 48,0 КГц
Частота кадров : 31,250 кадров/сек (1536 spf)
Метод сжатия : С потерями
Задержка видео : -544 мс.
Размер потока : 48,3 Мбайт (5%)
Аудио #2
Идентификатор : 189 (0xBD)-130 (0x82)
Формат : AC-3
Формат/Информация : Audio Coding 3
Расширение режима : CM (complete main)
Параметр Endianness формата : Big
Режим смешивания : DVD-Video
Продолжительность : 17 м.
Вид битрейта : Постоянный
Битрейт : 384 Кбит/сек
Каналы : 6 каналов
Расположение каналов : Front: L C R, Side: L R, LFE
Частота : 48,0 КГц
Частота кадров : 31,250 кадров/сек (1536 spf)
Метод сжатия : С потерями
Задержка видео : -544 мс.
Размер потока : 48,3 Мбайт (5%)
Аудио #3
Идентификатор : 189 (0xBD)-131 (0x83)
Формат : AC-3
Формат/Информация : Audio Coding 3
Расширение режима : CM (complete main)
Параметр Endianness формата : Big
Режим смешивания : DVD-Video
Продолжительность : 17 м.
Вид битрейта : Постоянный
Битрейт : 384 Кбит/сек
Каналы : 6 каналов
Расположение каналов : Front: L C R, Side: L R, LFE
Частота : 48,0 КГц
Частота кадров : 31,250 кадров/сек (1536 spf)
Метод сжатия : С потерями
Задержка видео : -544 мс.
Размер потока : 48,3 Мбайт (5%)
Аудио #4
Идентификатор : 189 (0xBD)-132 (0x84)
Формат : AC-3
Формат/Информация : Audio Coding 3
Профиль формата : Dolby Digital
Расширение режима : CM (complete main)
Параметр Endianness формата : Big
Режим смешивания : DVD-Video
Продолжительность : 17 м.
Вид битрейта : Постоянный
Битрейт : 192 Кбит/сек
Каналы : 2 канала
Расположение каналов : Front: L R
Частота : 48,0 КГц
Частота кадров : 31,250 кадров/сек (1536 spf)
Метод сжатия : С потерями
Задержка видео : -480 мс.
Размер потока : 24,1 Мбайт (2%)
Текст #1
Идентификатор : 189 (0xBD)-32 (0x20)
Формат : RLE
Формат/Информация : Run-length encoding
Режим смешивания : DVD-Video
Продолжительность : 17 м.
Задержка видео : 680 мс.
Текст #2
Идентификатор : 189 (0xBD)-33 (0x21)
Формат : RLE
Формат/Информация : Run-length encoding
Режим смешивания : DVD-Video
Продолжительность : 17 м.
Задержка видео : 680 мс.
Текст #3
Идентификатор : 189 (0xBD)-34 (0x22)
Формат : RLE
Формат/Информация : Run-length encoding
Режим смешивания : DVD-Video
Продолжительность : 17 м.
Задержка видео : 680 мс.
Текст #4
Идентификатор : 189 (0xBD)-35 (0x23)
Формат : RLE
Формат/Информация : Run-length encoding
Режим смешивания : DVD-Video
Продолжительность : 17 м.
Задержка видео : 880 мс.
Текст #5
Идентификатор : 189 (0xBD)-36 (0x24)
Формат : RLE
Формат/Информация : Run-length encoding
Режим смешивания : DVD-Video
Продолжительность : 17 м.
Задержка видео : 880 мс.
Текст #6
Идентификатор : 189 (0xBD)-37 (0x25)
Формат : RLE
Формат/Информация : Run-length encoding
Режим смешивания : DVD-Video
Продолжительность : 17 м.
Задержка видео : 880 мс.
Текст #7
Идентификатор : 189 (0xBD)-38 (0x26)
Формат : RLE
Формат/Информация : Run-length encoding
Режим смешивания : DVD-Video
Продолжительность : 17 м.
Задержка видео : 600 мс.
Текст #8
Идентификатор : 189 (0xBD)-39 (0x27)
Формат : RLE
Формат/Информация : Run-length encoding
Режим смешивания : DVD-Video
Продолжительность : 17 м.
Задержка видео : 480 мс.
Текст #9
Идентификатор : 189 (0xBD)-40 (0x28)
Формат : RLE
Формат/Информация : Run-length encoding
Режим смешивания : DVD-Video
Продолжительность : 17 м.
Задержка видео : 560 мс.
Текст #10
Идентификатор : 189 (0xBD)-41 (0x29)
Формат : RLE
Формат/Информация : Run-length encoding
Режим смешивания : DVD-Video
Продолжительность : 17 м.
Задержка видео : 680 мс.
Текст #11
Идентификатор : 189 (0xBD)-42 (0x2A)
Формат : RLE
Формат/Информация : Run-length encoding
Режим смешивания : DVD-Video
Продолжительность : 17 м.
Задержка видео : 680 мс.
Текст #12
Идентификатор : 189 (0xBD)-43 (0x2B)
Формат : RLE
Формат/Информация : Run-length encoding
Режим смешивания : DVD-Video
Продолжительность : 17 м.
Задержка видео : 680 мс.
Текст #13
Идентификатор : 189 (0xBD)-44 (0x2C)
Формат : RLE
Формат/Информация : Run-length encoding
Режим смешивания : DVD-Video
Продолжительность : 17 м.
Задержка видео : 880 мс.
Текст #14
Идентификатор : 189 (0xBD)-45 (0x2D)
Формат : RLE
Формат/Информация : Run-length encoding
Режим смешивания : DVD-Video
Продолжительность : 17 м.
Задержка видео : 880 мс.
Текст #15
Идентификатор : 189 (0xBD)-46 (0x2E)
Формат : RLE
Формат/Информация : Run-length encoding
Режим смешивания : DVD-Video
Продолжительность : 17 м.
Задержка видео : 880 мс.
Текст #16
Идентификатор : 189 (0xBD)-47 (0x2F)
Формат : RLE
Формат/Информация : Run-length encoding
Режим смешивания : DVD-Video
Продолжительность : 17 м.
Задержка видео : 480 мс.
Текст #17
Идентификатор : 189 (0xBD)-48 (0x30)
Формат : RLE
Формат/Информация : Run-length encoding
Режим смешивания : DVD-Video
Продолжительность : 17 м.
Задержка видео : 480 мс.
Текст #18
Идентификатор : 189 (0xBD)-49 (0x31)
Формат : RLE
Формат/Информация : Run-length encoding
Режим смешивания : DVD-Video
Продолжительность : 17 м.
Задержка видео : 480 мс.
Текст #19
Идентификатор : 189 (0xBD)-50 (0x32)
Формат : RLE
Формат/Информация : Run-length encoding
Режим смешивания : DVD-Video
Задержка видео : 2 с. 560 мс.
Текст #20
Идентификатор : 189 (0xBD)-51 (0x33)
Формат : RLE
Формат/Информация : Run-length encoding
Режим смешивания : DVD-Video
Задержка видео : 2 с. 520 мс.
Текст #21
Идентификатор : 189 (0xBD)-52 (0x34)
Формат : RLE
Формат/Информация : Run-length encoding
Режим смешивания : DVD-Video
Задержка видео : 2 с. 480 мс.
Меню

Скриншоты


[Профиль] [ЛС]
Показать сообщения:    

Текущее время: Сегодня 22:43

Часовой пояс: GMT



Вы не можете начинать темы
Вы не можете отвечать на сообщения
Вы не можете редактировать свои сообщения
Вы не можете удалять свои сообщения
Вы не можете голосовать в опросах
Вы не можете прикреплять файлы к сообщениям
Вы не можете скачивать файлы