Убойный огонек / Mi gran noche (2015) HDRip | P | iTunes

 
Автор Сообщение

Russian Mafia ®

Пол:

Стаж: 1 год 8 месяцев

Сообщений: 4255



Награды: 10 (Подробнее)

Top Releaser 5 (Количество: 1) Top Releaser 2 (Количество: 1) Mega Seeder 5 (Количество: 1)
Торрент-статистика

Создавать темы 31-Май-2016 11:35

[Цитировать]

Убойный огонек / Mi gran noche
Страна: Испания
Производство: Canal Plus, Telefonica Studios, TVE
Год выпуска: 2015
Жанр: комедия
Продолжительность: 01:37:22
Режиссер: Алекс де ла Иглесиа
Авторы сценария: Хорхе Геррикаэчеварриа, Алекс де ла Иглесиа
В ролях: Рафаэль, Марио Касас, Пепон Ниэто, Бланка Суарес, Уго Сильва, Кармен Мачи, Луис Кальехо, Карлос Аресес
Описание: Телезапись зрелищного «новогоднего огонька» оборачивается абсолютным сумасшествием, когда череда несчастных случаев обрушивается на съемочную площадку один за другим. Съемочный кран только что разгромил столик с массовкой… включая массовку. Одержимая фанатка шантажирует Адана, сексапильную сверх всякой меры поп-звезду. За легендарным певцом Альфонсо открывает вооруженную охоту сумасшедший автор песен. Один из актеров массовки, Хосе, пытает свое счастье с прекрасной Паломой, однако всех ее мужчин обычно преследуют беды. Тем временем снаружи разъяренная толпа требует ареста бесчестного продюсера шоу. В любой момент все окончательно выйдет из под контроля. Как всегда, «праздник» подкрался незаметно..!

Перевод: Профессиональный (многоголосый, закадровый) | iTunes
Субтитры: нет-Качество: HDRip
Формат: AVI
Видео кодек: XviD
Аудио кодек: АС3
Видео: 720x304 (2.35:1), 23.976 fps, XviD ~1 616 kbps avg
Аудио: 48.0 kHz, AC3 Dolby Digital, 3/2 (L,C,R,l,r) + LFE ch, ~384.00 kbps
Дата премьеры (мир): 11 сентября 2015
Дата премьеры (РФ): 28 декабря 2015

Media Info

General
Complete name : Ogon1yOK.2O15.P.HDRip.14OOMB.avi
Format : AVI
Format/Info : Audio Video Interleave
File size : 1.37 GiB
Duration : 1h 37mn
Overall bit rate : 2 009 Kbps
Writing application : VirtualDubMod 1.5.10.2 (build 2540/release)
Writing library : VirtualDubMod build 2540/release
Video
ID : 0
Format : MPEG-4 Visual
Format profile : Advanced Simple@L5
Format settings, BVOP : 2
Format settings, QPel : No
Format settings, GMC : No warppoints
Format settings, Matrix : Default (MPEG)
Codec ID : XVID
Codec ID/Hint : XviD
Duration : 1h 37mn
Bit rate : 1 616 Kbps
Width : 720 pixels
Height : 304 pixels
Display aspect ratio : 2.35:1
Frame rate : 23.976 (24000/1001) fps
Color space : YUV
Chroma subsampling : 4:2:0
Bit depth : 8 bits
Scan type : Progressive
Compression mode : Lossy
Bits/(Pixel*Frame) : 0.308
Stream size : 1.10 GiB (80%)
Writing library : XviD 1.2.1 (UTC 2008-12-04)
Audio
ID : 1
Format : AC-3
Format/Info : Audio Coding 3
Mode extension : CM (complete main)
Format settings, Endianness : Big
Codec ID : 2000
Duration : 1h 37mn
Bit rate mode : Constant
Bit rate : 384 Kbps
Channel(s) : 6 channels
Channel positions : Front: L C R, Side: L R, LFE
Sampling rate : 48.0 KHz
Frame rate : 31.250 fps (1536 spf)
Compression mode : Lossy
Stream size : 267 MiB (19%)
Alignment : Split accross interleaves
Interleave, duration : 42 ms (1.00 video frame)
Interleave, preload duration : 500 ms

Скриншоты

[Профиль] [ЛС]
Кто просматривает тему:

Форум Тема Автор Размер
50/50 (Dance, Club) VA - Убойный хитовый шквал (2015) MP3 BOSS 844 MB
Pop (Pop)Сборник - Убойный хит на MTV (2015) MP3 BOSS 672 MB
50/50 (Pop, Dance) VA - Убойные хиты. Зимний Mix - 2015, MP3, 256 kbps Magnat 667 MB
Cборники 70х-80х-90х (Ретро) (Pop, Dance, Disco) VA - Убойный хит представляет: Лучшие песни 80-90х №2 - 2014, MP3, 128 kbps Magnat 656 MB
Фильмы 2010 года Такер и Дейл против Зла / Убойные каникулы / Tucker & Dale vs Evil (Эли Крейг / Eli Craig) [2010, Канада, США, Комедия, пародия, ужасы, HDRip] AVO (Карповский) TorrentFilm 1.47 GB
Фильмы 2010 года Такер и Дейл против Зла / Убойные каникулы / Tucker & Dale vs Evil (Эли Крейг / Eli Craig) [2010, Канада, США, Комедия, пародия, ужасы, HDRip] Dub TorrentFilm 743 MB
Фильмы 2014 года Убойная Красотка / Bombshell Bloodbath (Бретт Маллен) [2014, ужасы, WEBRip] | L1 BOSS 1.36 GB
Отечественные cериалы Убойная сила 6 сезонов (Александр Рогожкин, Евгений Татарский, Виктор Бутурлин, Евгений Аксенов, Евгений Татарский) [2000-2005, боевик, криминал, DVDRip] Russian Mafia 19.15 GB
Показать сообщения:    

Текущее время: Сегодня 16:20

Часовой пояс: GMT



Вы не можете начинать темы
Вы не можете отвечать на сообщения
Вы не можете редактировать свои сообщения
Вы не можете удалять свои сообщения
Вы не можете голосовать в опросах
Вы не можете прикреплять файлы к сообщениям
Вы не можете скачивать файлы