Убойный огонек / Mi gran noche (2015) ВDRip 1080р | P | iTunes

 
Автор Сообщение

Russian Mafia ®

Пол:

Стаж: 1 год 8 месяцев

Сообщений: 4257



Награды: 10 (Подробнее)

Mega Seeder 2 (Количество: 1) Top Releaser 5 (Количество: 1) Top Releaser 4 (Количество: 1)
Торрент-статистика

Создавать темы 31-Май-2016 11:34

[Цитировать]

Убойный огонек / Mi gran noche
Страна: Испания
Производство: Canal Plus, Telefonica Studios, TVE
Год выпуска: 2015
Жанр: комедия
Продолжительность: 01:37:22
Режиссер: Алекс де ла Иглесиа
Авторы сценария: Хорхе Геррикаэчеварриа, Алекс де ла Иглесиа
В ролях: Рафаэль, Марио Касас, Пепон Ниэто, Бланка Суарес, Уго Сильва, Кармен Мачи, Луис Кальехо, Карлос Аресес
Описание: Телезапись зрелищного «новогоднего огонька» оборачивается абсолютным сумасшествием, когда череда несчастных случаев обрушивается на съемочную площадку один за другим. Съемочный кран только что разгромил столик с массовкой… включая массовку. Одержимая фанатка шантажирует Адана, сексапильную сверх всякой меры поп-звезду. За легендарным певцом Альфонсо открывает вооруженную охоту сумасшедший автор песен. Один из актеров массовки, Хосе, пытает свое счастье с прекрасной Паломой, однако всех ее мужчин обычно преследуют беды. Тем временем снаружи разъяренная толпа требует ареста бесчестного продюсера шоу. В любой момент все окончательно выйдет из под контроля. Как всегда, «праздник» подкрался незаметно..!

Перевод: Профессиональный (многоголосый, закадровый) | iTunes
Субтитры: нет-Качество: ВDRip 1080р
Формат: MКV
Видео кодек: AVC
Аудио кодек: АС3 | DTS
Видео: 1920x800 (2.40:1), 23.976 fps, MPEG-4 AVC ~13.5 Mbps avg
Аудио №1: 48.0 kHz, AC3 Dolby Digital, 3/2 (L,C,R,l,r) + LFE ch, ~384.00 kbps | RUS
Аудио №2: 48.0 kHz, Digital Theater Systems, 3/2 (L,C,R,l,r) + LFE ch, ~1509 kbps | SPA
Дата премьеры (мир): 11 сентября 2015
Дата премьеры (РФ): 28 декабря 2015

Media Info

General
Unique ID : 204857222499688193272756221644630751201 (0x9A1E10DFB6F3F6848E7050595C8D77E1)
Complete name : Uboinyi.ogonjek.2015.BDRip.1080p.mkv
Format : Matroska
Format version : Version 4 / Version 2
File size : 10.5 GiB
Duration : 1h 37mn
Overall bit rate : 15.4 Mbps
Encoded date : UTC 2016-03-17T07:54:07Z
Writing application : mkvmerge v8.9.0 ('Father Daughter') 64bit
Writing library : Lavf55.12.0
Video
ID : 1
Format : AVC
Format/Info : Advanced Video Codec
Format profile : High@L4.1
Format settings, CABAC : Yes
Format settings, ReFrames : 4 frames
Codec ID : V_MPEG4/ISO/AVC
Bit rate : 13.5 Mbps
Width : 1 920 pixels
Height : 800 pixels
Display aspect ratio : 2.40:1
Frame rate mode : Variable
Color space : YUV
Chroma subsampling : 4:2:0
Bit depth : 8 bits
Scan type : Progressive
Title : BDRip by Silverok
Writing library : x264 core 142 r2479 dd79a61
Encoding settings : cabac=1 / ref=3 / deblock=1:-3:-3 / analyse=0x3:0x113 / me=hex / subme=7 / psy=1 / psy_rd=2.00:0.70 / mixed_ref=1 / me_range=16 / chroma_me=1 / trellis=1 / 8x8dct=1 / cqm=0 / deadzone=21,11 / fast_pskip=1 / chroma_qp_offset=-4 / threads=12 / lookahead_threads=2 / sliced_threads=0 / nr=0 / decimate=1 / interlaced=0 / bluray_compat=0 / constrained_intra=0 / bframes=3 / b_pyramid=2 / b_adapt=1 / b_bias=0 / direct=1 / weightb=1 / open_gop=0 / weightp=2 / keyint=240 / keyint_min=24 / scenecut=40 / intra_refresh=0 / rc_lookahead=40 / rc=2pass / mbtree=1 / bitrate=13500 / ratetol=1.0 / qcomp=0.60 / qpmin=0 / qpmax=69 / qpstep=4 / cplxblur=20.0 / qblur=0.5 / vbv_maxrate=62500 / vbv_bufsize=78125 / nal_hrd=none / filler=0 / ip_ratio=1.40 / aq=1:1.20
Default : Yes
Forced : No
Color range : Limited
Color primaries : BT.709
Transfer characteristics : BT.709
Matrix coefficients : BT.709
DURATION : 01:37:22.771000000
NUMBER_OF_FRAMES : 140079
NUMBER_OF_BYTES : 9858510675
_STATISTICS_WRITING_APP : mkvmerge v8.9.0 ('Father Daughter') 64bit
_STATISTICS_WRITING_DATE_UT : 2016-03-17 14:36:20
_STATISTICS_TAGS : BPS DURATION NUMBER_OF_FRAMES NUMBER_OF_BYTES
Audio #1
ID : 2
Format : AC-3
Format/Info : Audio Coding 3
Mode extension : CM (complete main)
Format settings, Endianness : Big
Codec ID : A_AC3
Duration : 1h 37mn
Bit rate mode : Constant
Bit rate : 384 Kbps
Channel(s) : 6 channels
Channel positions : Front: L C R, Side: L R, LFE
Sampling rate : 48.0 KHz
Compression mode : Lossy
Stream size : 267 MiB (2%)
Title : Многоголосый закадровый, iTunes
Language : Russian
Default : Yes
Forced : No
DURATION : 01:37:22.848000000
NUMBER_OF_FRAMES : 182589
NUMBER_OF_BYTES : 280456704
_STATISTICS_WRITING_APP : mkvmerge v8.9.0 ('Father Daughter') 64bit
_STATISTICS_WRITING_DATE_UT : 2016-03-17 14:36:20
_STATISTICS_TAGS : BPS DURATION NUMBER_OF_FRAMES NUMBER_OF_BYTES
Audio #2
ID : 3
Format : DTS
Format/Info : Digital Theater Systems
Mode : 16
Format settings, Endianness : Big
Codec ID : A_DTS
Duration : 1h 37mn
Bit rate mode : Constant
Bit rate : 1 509 Kbps
Channel(s) : 6 channels
Channel positions : Front: L C R, Side: L R, LFE
Sampling rate : 48.0 KHz
Bit depth : 24 bits
Compression mode : Lossy
Stream size : 1.03 GiB (10%)
Title : Surround
Language : Spanish
Default : No
Forced : No
DURATION : 01:37:22.827000000
NUMBER_OF_FRAMES : 547765
NUMBER_OF_BYTES : 1102103180
_STATISTICS_WRITING_APP : mkvmerge v8.9.0 ('Father Daughter') 64bit
_STATISTICS_WRITING_DATE_UT : 2016-03-17 14:36:20
_STATISTICS_TAGS : BPS DURATION NUMBER_OF_FRAMES NUMBER_OF_BYTES
Menu
00:00:00.000 : :Chapter 1
00:10:12.128 : :Chapter 2
00:20:22.279 : :Chapter 3
00:28:31.018 : :Chapter 4
00:38:07.719 : :Chapter 5
00:46:55.996 : :Chapter 6
00:57:49.357 : :Chapter 7
01:05:20.725 : :Chapter 8
01:14:31.233 : :Chapter 9
01:23:59.384 : :Chapter 10
01:30:42.120 : :Chapter 11
01:33:31.122 : :Chapter 12

Скриншоты

[Профиль] [ЛС]
Кто просматривает тему:

Форум Тема Автор Размер
50/50 (Dance, Club) VA - Убойный хитовый шквал (2015) MP3 BOSS 844 MB
Pop (Pop)Сборник - Убойный хит на MTV (2015) MP3 BOSS 672 MB
50/50 (Pop, Dance) VA - Убойные хиты. Зимний Mix - 2015, MP3, 256 kbps Magnat 667 MB
Cборники 70х-80х-90х (Ретро) (Pop, Dance, Disco) VA - Убойный хит представляет: Лучшие песни 80-90х №2 - 2014, MP3, 128 kbps Magnat 656 MB
Фильмы 2010 года Такер и Дейл против Зла / Убойные каникулы / Tucker & Dale vs Evil (Эли Крейг / Eli Craig) [2010, Канада, США, Комедия, пародия, ужасы, HDRip] AVO (Карповский) TorrentFilm 1.47 GB
Фильмы 2010 года Такер и Дейл против Зла / Убойные каникулы / Tucker & Dale vs Evil (Эли Крейг / Eli Craig) [2010, Канада, США, Комедия, пародия, ужасы, HDRip] Dub TorrentFilm 743 MB
Фильмы 2014 года Убойная Красотка / Bombshell Bloodbath (Бретт Маллен) [2014, ужасы, WEBRip] | L1 BOSS 1.36 GB
Отечественные cериалы Убойная сила 6 сезонов (Александр Рогожкин, Евгений Татарский, Виктор Бутурлин, Евгений Аксенов, Евгений Татарский) [2000-2005, боевик, криминал, DVDRip] Russian Mafia 19.15 GB
Показать сообщения:    

Текущее время: Сегодня 10:07

Часовой пояс: GMT



Вы не можете начинать темы
Вы не можете отвечать на сообщения
Вы не можете редактировать свои сообщения
Вы не можете удалять свои сообщения
Вы не можете голосовать в опросах
Вы не можете прикреплять файлы к сообщениям
Вы не можете скачивать файлы