Убойные Каникулы / Tucker & Dale vs Evil (Эли Крэйг / Eli Craig) [2010, Канада, США, Комедия, Ужасы, BDRip-AVC] Dub + Sub Rus, Eng + Original Eng

 
Автор Сообщение

TorrentFilm ®

Пол:

Стаж: 2 года

Сообщений: 7741



Награды: Нет

Торрент-статистика

Создавать темы 24-Янв-2016 00:08

[Цитировать]

-Убойные Каникулы / Tucker & Dale vs Evil
«Куча жертв... ни одного маньяка»- -Страна: Канада, США
Жанр: Комедия, Ужасы
Год выпуска: 2010
Продолжительность: 01:28:34-Перевод: Профессиональный (дублированный)-Cубтитры: Русские, Английские
Оригинальная аудиодорожка: Английская-Режиссер: Эли Крэйг / Eli Craig-В ролях: Тайлер Лабайн, Алан Тьюдик, Катрина Боуден, Джесси Мосс, Филип Грэйнджер, Брэндон Джей МакЛарен, Кристи Лэйн, Челан Симмонс, Трэвис Нельсон, Алекс Арсено-Описание: Группа студентов колледжа отправляется за город, чтобы вовсю оторваться на выходных: попить пивка, поплавать в озере и подышать чистым лесным воздухом. Но уже в первый день они сталкиваются с неотесанными фермерами Такером и Дэйлом, также решившими как следует оттянуться на природе. Приняв этих диковатых, но, в сущности, симпатичных ребят за «злобных местных», горожане решают дать деревенщине жесткий отпор. Но с каждым их шагом становится только хуже…- - -Качество видео: BDRip-AVC
Формат видео: MKV-Видео: MPEG-4 AVC, 1108x468 (2.35:1), 23.976 fps, 2600 kbps avg, 0.211 bit/pixel
Аудио 1: 48 kHz, AC3 Dolby Digital, 3/2 (L,C,R,l,r) + LFE ch, ~448 kbps avg
Аудио 2: 48 kHz, AC3 Dolby Digital, 3/2 (L,C,R,l,r) + LFE ch, ~448 kbps avg-

MediaInfo

Complete name : E:\РАЗДАЧИ\Tucker & Dale vs Evil (2010) BDRip-AVC.mkv
Format : Matroska
Format version : Version 2
File size : 2.18 GiB
Duration : 1h 28mn
Overall bit rate : 3 519 Kbps
Movie name : Tucker & Dale vs Evil (2010) BDRip-AVC
Encoded date : UTC 2016-01-21 15:02:47
Writing application : mkvmerge v3.0.0 ('Hang up your Hang-Ups') built on Dec 12 2009 15:20:35
Writing library : libebml v0.7.9 + libmatroska v0.8.1
Cover : Yes
Video
ID : 1
Format : AVC
Format/Info : Advanced Video Codec
Format profile : High@L4.1
Format settings, CABAC : Yes
Format settings, ReFrames : 8 frames
Codec ID : V_MPEG4/ISO/AVC
Duration : 1h 28mn
Bit rate : 2 621 Kbps
Width : 1 108 pixels
Height : 468 pixels
Display aspect ratio : 2.35:1
Frame rate mode : Constant
Frame rate : 23.976 fps
Color space : YUV
Chroma subsampling : 4:2:0
Bit depth : 8 bits
Scan type : Progressive
Bits/(Pixel*Frame) : 0.211
Stream size : 1.58 GiB (73%)
Writing library : x264 core 115 r1995 c1e60b9
Encoding settings : cabac=1 / ref=8 / deblock=1:-2:-2 / analyse=0x3:0x133 / me=umh / subme=10 / psy=1 / psy_rd=1.00:0.10 / mixed_ref=1 / me_range=32 / chroma_me=1 / trellis=2 / 8x8dct=1 / cqm=0 / deadzone=21,11 / fast_pskip=0 / chroma_qp_offset=-3 / threads=12 / sliced_threads=0 / nr=0 / decimate=1 / interlaced=0 / bluray_compat=0 / constrained_intra=0 / bframes=7 / b_pyramid=2 / b_adapt=2 / b_bias=0 / direct=3 / weightb=1 / open_gop=0 / weightp=2 / keyint=250 / keyint_min=23 / scenecut=40 / intra_refresh=0 / rc_lookahead=40 / rc=2pass / mbtree=0 / bitrate=2621 / ratetol=1.0 / qcomp=0.70 / qpmin=0 / qpmax=69 / qpstep=4 / cplxblur=20.0 / qblur=0.5 / vbv_maxrate=40000 / vbv_bufsize=30000 / nal_hrd=none / ip_ratio=1.40 / pb_ratio=1.30 / aq=2:1.00
Default : Yes
Forced : No
Audio #1
ID : 2
Format : AC-3
Format/Info : Audio Coding 3
Mode extension : CM (complete main)
Format settings, Endianness : Big
Codec ID : A_AC3
Duration : 1h 28mn
Bit rate mode : Constant
Bit rate : 448 Kbps
Channel(s) : 6 channels
Channel positions : Front: L C R, Side: L R, LFE
Sampling rate : 48.0 KHz
Bit depth : 16 bits
Compression mode : Lossy
Stream size : 284 MiB (13%)
Title : Дубляж
Language : Russian
Default : No
Forced : Yes
Audio #2
ID : 3
Format : AC-3
Format/Info : Audio Coding 3
Mode extension : CM (complete main)
Format settings, Endianness : Big
Codec ID : A_AC3
Duration : 1h 28mn
Bit rate mode : Constant
Bit rate : 448 Kbps
Channel(s) : 6 channels
Channel positions : Front: L C R, Side: L R, LFE
Sampling rate : 48.0 KHz
Bit depth : 16 bits
Compression mode : Lossy
Stream size : 284 MiB (13%)
Title : Original
Language : English
Default : No
Forced : No
Text #1
ID : 4
Format : UTF-8
Codec ID : S_TEXT/UTF8
Codec ID/Info : UTF-8 Plain Text
Title : Forced
Language : Russian
Default : Yes
Forced : No
Text #2
ID : 5
Format : UTF-8
Codec ID : S_TEXT/UTF8
Codec ID/Info : UTF-8 Plain Text
Title : Forced
Language : English
Default : No
Forced : No
Menu
00:00:00.000 : en:00:00:00.000
00:10:48.439 : en:00:10:48.439
00:18:57.845 : en:00:18:57.845
00:30:29.410 : en:00:30:29.410
00:37:55.731 : en:00:37:55.731
00:45:39.903 : en:00:45:39.903
00:54:46.408 : en:00:54:46.408
01:02:39.338 : en:01:02:39.338
01:10:58.128 : en:01:10:58.128
01:23:00.183 : en:01:23:00.183

Скриншот c названием фильма

Скриншоты

[Профиль] [ЛС]

Создавать темы 12-Июн-2016 07:53 (спустя 4 месяца 19 дней)

Топик был перенесен из форума Фильмы 2011 года в форум Фильмы 2010 года
Russian Mafia
 
Кто просматривает тему:

Форум Тема Автор Размер
50/50 (Dance, Club) VA - Убойный хитовый шквал (2015) MP3 BOSS 844 MB
Pop (Pop)Сборник - Убойный хит на MTV (2015) MP3 BOSS 672 MB
50/50 (Pop, Dance) VA - Убойные хиты. Зимний Mix - 2015, MP3, 256 kbps Magnat 667 MB
Cборники 70х-80х-90х (Ретро) (Pop, Dance, Disco) VA - Убойный хит представляет: Лучшие песни 80-90х №2 - 2014, MP3, 128 kbps Magnat 656 MB
Фильмы 2010 года Такер и Дейл против Зла / Убойные каникулы / Tucker & Dale vs Evil (Эли Крейг / Eli Craig) [2010, Канада, США, Комедия, пародия, ужасы, HDRip] AVO (Карповский) TorrentFilm 1.47 GB
Фильмы 2010 года Такер и Дейл против Зла / Убойные каникулы / Tucker & Dale vs Evil (Эли Крейг / Eli Craig) [2010, Канада, США, Комедия, пародия, ужасы, HDRip] Dub TorrentFilm 743 MB
Фильмы 2014 года Убойная Красотка / Bombshell Bloodbath (Бретт Маллен) [2014, ужасы, WEBRip] | L1 BOSS 1.36 GB
Отечественные cериалы Убойная сила 6 сезонов (Александр Рогожкин, Евгений Татарский, Виктор Бутурлин, Евгений Аксенов, Евгений Татарский) [2000-2005, боевик, криминал, DVDRip] Russian Mafia 19.15 GB
Показать сообщения:    

Текущее время: Сегодня 12:28

Часовой пояс: GMT



Вы не можете начинать темы
Вы не можете отвечать на сообщения
Вы не можете редактировать свои сообщения
Вы не можете удалять свои сообщения
Вы не можете голосовать в опросах
Вы не можете прикреплять файлы к сообщениям
Вы не можете скачивать файлы