Убойные каникулы / Tucker and Dale vs. Evil (Эли Крэйг / Eli Craig) [2010, Канада, США, Комедия, ужасы, BDRip-AVC] Dub + Sub Rus, Eng + Original Eng

 
Автор Сообщение

TorrentFilm ®

Пол:

Стаж: 2 года

Сообщений: 7741



Награды: Нет

Торрент-статистика

Создавать темы 30-Май-2015 00:04

[Цитировать]

Убойные каникулы
Tucker and Dale vs. Evil
«Куча жертв... ни одного маньяка»
- Страна: Канада, США
Жанр: Комедия, ужасы
Год выпуска: 2010
Продолжительность: 01:28:34
Перевод: Профессиональный (дублированный)
Cубтитры: Rus, Eng
Оригинальная аудиодорожка: английский
Режиссер: Эли Крэйг / Eli Craig
В ролях: Тайлер Лабайн, Алан Тьюдик, Катрина Боуден, Джесси Мосс, Филип Грэйнджер, Брэндон Джей МакЛарен, Кристи Лэйн, Челан Симмонс, Трэвис Нельсон, Алекс Арсено-ОписаниеГруппа студентов колледжа отправляется за город, чтобы вовсю оторваться на выходных: попить пивка, поплавать в озере и подышать чистым лесным воздухом. Но уже в первый день они сталкиваются с неотесанными фермерами Такером и Дэйлом, также решившими как следует оттянуться на природе. Приняв этих диковатых, но, в сущности, симпатичных ребят за «злобных местных», горожане решают дать деревенщине жесткий отпор. Но с каждым их шагом становится только хуже…-«Убойные каникулы» (Tucker & Dale vs Evil, дословно — «Такер и Дейл против зла») — пародия на хоррор, чёрная комедия, снятая режиссёром Илаем Крейгом в 2010 году.
Сэмпл

IMDb: 7.60 (110 480)
Качество видео: BDRip-AVC Ubojnye.kanikuly.2010.x264.Blu-Ray.(1080p).BLUEBIRD
Формат видео: MKV
Видео: AVC 2342 Kbps 1136 x 484 (2.347) 23.976 fps
Аудио: AC-3 448 Kbps 6 channels, 48.0 KHz Rus
Аудио 2: AC-3 448 Kbps 6 channels, 48.0 KHz Eng
Формат субтитров: softsub (SRT)

MediaInfo | LogLog

x264 [info]: frame I:1216 Avg QP:15.15 size: 75798
x264 [info]: frame P:30943 Avg QP:16.74 size: 25175
x264 [info]: frame B:95267 Avg QP:19.30 size: 7627
x264 [info]: consecutive B-frames: 3.7% 5.5% 9.5% 22.3% 15.5% 37.0% 2.9% 0.9% 0.7% 0.4% 0.3% 0.3% 0.9%
x264 [info]: mb I I16..4: 5.5% 71.9% 22.5%
x264 [info]: mb P I16..4: 0.7% 10.5% 2.5% P16..4: 29.2% 31.5% 13.3% 2.5% 0.3% skip: 9.5%
x264 [info]: mb B I16..4: 0.2% 1.3% 0.4% B16..8: 31.0% 20.2% 3.4% direct: 4.7% skip:38.9% L0:41.1% L1:43.6% BI:15.2%
x264 [info]: 8x8 transform intra:74.5% inter:54.8%
x264 [info]: direct mvs spatial:99.9% temporal:0.1%
x264 [info]: coded y,uvDC,uvAC intra: 82.9% 78.8% 57.3% inter: 20.1% 13.1% 2.8%
x264 [info]: i16 v,h,dc,p: 44% 16% 8% 32%
x264 [info]: i8 v,h,dc,ddl,ddr,vr,hd,vl,hu: 14% 9% 9% 8% 11% 12% 11% 13% 13%
x264 [info]: i4 v,h,dc,ddl,ddr,vr,hd,vl,hu: 33% 8% 9% 6% 10% 10% 8% 8% 8%
x264 [info]: i8c dc,h,v,p: 37% 29% 21% 14%
x264 [info]: Weighted P-Frames: Y:3.8% UV:2.3%
x264 [info]: ref P L0: 49.7% 11.5% 15.7% 5.7% 4.7% 3.4% 3.0% 1.7% 1.6% 1.3% 1.4% 0.2% 0.0%
x264 [info]: ref B L0: 74.1% 11.2% 5.4% 2.7% 2.0% 1.6% 1.3% 0.8% 0.5% 0.3%
x264 [info]: ref B L1: 92.6% 7.4%
x264 [info]: kb/s:2405.03
x264 [total]: encoded 127426 frames, 11.12 fps, 2405.03 kb/s, duration 3:10:59.28
Format : Matroska
Format version : Version 4 / Version 2
File size : 2.04 GiB
Duration : 1h 28mn
Overall bit rate : 3 303 Kbps
Encoded date : UTC 2015-05-27 10:53:54
Writing application : mkvmerge v6.7.0 ('Back to the Ground') 32bit built on Jan 8 2014 15:03:17
Writing library : libebml v1.3.0 + libmatroska v1.4.1
Video
ID : 1
Format : AVC
Format/Info : Advanced Video Codec
Format profile : High@L4.1
Format settings, CABAC : Yes
Format settings, ReFrames : 11 frames
Codec ID : V_MPEG4/ISO/AVC
Duration : 1h 28mn
Bit rate : 2 342 Kbps
Width : 1 136 pixels
Height : 484 pixels
Display aspect ratio : 2.35:1
Frame rate mode : Constant
Frame rate : 23.976 fps
Color space : YUV
Chroma subsampling : 4:2:0
Bit depth : 8 bits
Scan type : Progressive
Bits/(Pixel*Frame) : 0.178
Stream size : 1.45 GiB (71%)
Title : Tucker and Dale vs. Evil (2010) [torrentfilm.net]
Writing library : x264 core 146 r2538kMod 121396c
Encoding settings : cabac=1 / ref=11 / deblock=1:-2:-1 / analyse=0x3:0x133 / me=umh / subme=11 / psy=1 / fade_compensate=0.00 / psy_rd=1.00:0.05 / mixed_ref=1 / me_range=32 / chroma_me=1 / trellis=2 / 8x8dct=1 / cqm=0 / deadzone=21,11 / fast_pskip=0 / chroma_qp_offset=-3 / threads=12 / lookahead_threads=3 / sliced_threads=0 / nr=0 / decimate=1 / interlaced=0 / bluray_compat=0 / constrained_intra=0 / fgo=0 / bframes=12 / b_pyramid=2 / b_adapt=2 / b_bias=0 / direct=3 / weightb=1 / open_gop=0 / weightp=2 / keyint=250 / keyint_min=23 / scenecut=40 / intra_refresh=0 / rc_lookahead=80 / rc=crf / mbtree=0 / crf=17.2000 / qcomp=0.60 / qpmin=0 / qpmax=69 / qpstep=4 / vbv_maxrate=50000 / vbv_bufsize=62500 / crf_max=0.0 / nal_hrd=none / filler=0 / ip_ratio=1.40 / pb_ratio=1.30 / aq=3:0.90
Language : English
Default : Yes
Forced : No
Audio #1
ID : 2
Format : AC-3
Format/Info : Audio Coding 3
Mode extension : CM (complete main)
Format settings, Endianness : Big
Codec ID : A_AC3
Duration : 1h 28mn
Bit rate mode : Constant
Bit rate : 448 Kbps
Channel(s) : 6 channels
Channel positions : Front: L C R, Side: L R, LFE
Sampling rate : 48.0 KHz
Bit depth : 16 bits
Compression mode : Lossy
Stream size : 284 MiB (14%)
Title : DUB
Language : Russian
Default : Yes
Forced : No
Audio #2
ID : 3
Format : AC-3
Format/Info : Audio Coding 3
Mode extension : CM (complete main)
Format settings, Endianness : Big
Codec ID : A_AC3
Duration : 1h 28mn
Bit rate mode : Constant
Bit rate : 448 Kbps
Channel(s) : 6 channels
Channel positions : Front: L C R, Side: L R, LFE
Sampling rate : 48.0 KHz
Bit depth : 16 bits
Compression mode : Lossy
Stream size : 284 MiB (14%)
Title : Original
Language : English
Default : No
Forced : No
Text #1
ID : 4
Format : UTF-8
Codec ID : S_TEXT/UTF8
Codec ID/Info : UTF-8 Plain Text
Title : Full
Language : Russian
Default : No
Forced : No
Text #2
ID : 5
Format : UTF-8
Codec ID : S_TEXT/UTF8
Codec ID/Info : UTF-8 Plain Text
Title : SDH
Language : English
Default : No
Forced : No
Menu
00:00:00.000 : en:00:00:00.000
00:06:00.110 : en:00:06:00.110
00:12:02.263 : en:00:12:02.263
00:13:20.341 : en:00:13:20.341
00:20:11.752 : en:00:20:11.752
00:23:01.422 : en:00:23:01.422
00:30:25.991 : en:00:30:25.991
00:31:42.651 : en:00:31:42.651
00:37:52.604 : en:00:37:52.604
00:41:28.569 : en:00:41:28.569
00:45:00.698 : en:00:45:00.698
00:48:15.518 : en:00:48:15.518
00:52:09.126 : en:00:52:09.126
00:56:42.441 : en:00:56:42.441
00:56:44.151 : en:00:56:44.151
01:03:27.387 : en:01:03:27.387
01:07:53.569 : en:01:07:53.569
01:10:54.750 : en:01:10:54.750
01:17:55.087 : en:01:17:55.087
01:22:56.847 : en:01:22:56.847

Скриншоты




[Профиль] [ЛС]

Создавать темы 06-Авг-2015 22:31 (спустя 2 месяца 7 дней)

Топик был перенесен из форума Фильмы до 2014 года в форум Фильмы до 2012 года
sergej644
 

Создавать темы 12-Июн-2016 07:54 (спустя 1 год)

Топик был перенесен из форума Фильмы 2011 года в форум Фильмы 2010 года
Russian Mafia
 
Кто просматривает тему:

Форум Тема Автор Размер
50/50 (Dance, Club) VA - Убойный хитовый шквал (2015) MP3 BOSS 844 MB
Pop (Pop)Сборник - Убойный хит на MTV (2015) MP3 BOSS 672 MB
50/50 (Pop, Dance) VA - Убойные хиты. Зимний Mix - 2015, MP3, 256 kbps Magnat 667 MB
Cборники 70х-80х-90х (Ретро) (Pop, Dance, Disco) VA - Убойный хит представляет: Лучшие песни 80-90х №2 - 2014, MP3, 128 kbps Magnat 656 MB
Фильмы 2010 года Такер и Дейл против Зла / Убойные каникулы / Tucker & Dale vs Evil (Эли Крейг / Eli Craig) [2010, Канада, США, Комедия, пародия, ужасы, HDRip] AVO (Карповский) TorrentFilm 1.47 GB
Фильмы 2010 года Такер и Дейл против Зла / Убойные каникулы / Tucker & Dale vs Evil (Эли Крейг / Eli Craig) [2010, Канада, США, Комедия, пародия, ужасы, HDRip] Dub TorrentFilm 743 MB
Фильмы 2014 года Убойная Красотка / Bombshell Bloodbath (Бретт Маллен) [2014, ужасы, WEBRip] | L1 BOSS 1.36 GB
Отечественные cериалы Убойная сила 6 сезонов (Александр Рогожкин, Евгений Татарский, Виктор Бутурлин, Евгений Аксенов, Евгений Татарский) [2000-2005, боевик, криминал, DVDRip] Russian Mafia 19.15 GB
Показать сообщения:    

Текущее время: Сегодня 14:28

Часовой пояс: GMT



Вы не можете начинать темы
Вы не можете отвечать на сообщения
Вы не можете редактировать свои сообщения
Вы не можете удалять свои сообщения
Вы не можете голосовать в опросах
Вы не можете прикреплять файлы к сообщениям
Вы не можете скачивать файлы