Убить Билла / Kill Bill: Vol. 1 (Квентин Тарантино) [2003 г., боевик, триллер, криминал, DVDRip-AVC] [MVO, DUB] [Japanese Extended Cut]

 
Автор Сообщение

Bathory ®

Пол:

Стаж: 1 год 9 месяцев

Сообщений: 320



Награды: 3 (Подробнее)

Друг (Количество: 1) За внесенный вклад в развитие сайта (Количество: 1) Girls (Количество: 1)
Торрент-статистика

Создавать темы 11-Авг-2017 10:49

[Цитировать]

Убить Билла / Kill Bill: Vol. 1- Информация о фильме
Название: Убить Билла
Оригинальное название: Kill Bill: Vol. 1
Год выхода: 2003
Жанр: боевик, триллер, криминал
Режиссер: Квентин Тарантино
В ролях: Ума Турман, Люси Лью, Вивика А. Фокс, Джули Дрейфус, Тиаки Курияма, Сонни Тиба, Майкл Боуэн, Дэрил Ханна, Дэвид Кэрредин, Майкл Мэдсен
О фильме:
В беременную наемную убийцу по кличке Черная Мамба во время бракосочетания стреляет человек по имени Билл. Пуля в голове жертвы, кровь на подвенечном платье, темнота… Но голова у Черной Мамбы оказалась крепкой.
Пролежав четыре года в коме, Невеста приходит в себя. Она горит желанием найти тех, кто ее предал. Теперь только безжалостная месть успокоит сердце Черной Мамбы, и она начинает убивать поочередно всех членов банды Билла, оставляя главаря напоследок.

Страна: США
Студия: American Cement Building, 2404 Wilshire Boulevard, Los Angeles, California
Продолжительность: 01:51:46
Перевод:
1. Профессиональный (двухголосый закадровый) [Гланц и Королёва]
2. Дубляж
Файл
Кодек: AVC
Качество: DVDRip-AVC
Видео: 720x356@853x356, 1891 kbps, 23,976 fps, 0,308 Bits/(Pixel*Frame)
Звук:
1. AC3, 48 kHz, 6 ch, 448 kbps - RUS DVO
2. AC3, 48 kHz, 6 ch, 448 kbps - RUS DUB
Субтитры: Нет
Различия между международной и японской версией Нет черно-белых сцен, всё в цвете.

MI

Общее
Unique ID : 230506868910328053382079148886119407245 (0xAD6A02144ACD9C2DB9DEBCE4EFDBDE8D)
Complete name : E:\Kill.Bill.vol.1.2003.DVDRip-AVC.MegaPeer.mkv
Format : Matroska
Format version : Version 2
File size : 2,18 Гбайт
Duration : 1 ч. 51 м.
Overall bit rate : 2786 Кбит/сек
Encoded date : UTC 2017-08-11 09:54:45
Writing application : mkvmerge v14.0.0 ('Flow') 64bit
Writing library : libebml v1.3.4 + libmatroska v1.4.5
Видео
ID : 1
Format : AVC
Format/Info : Advanced Video Codec
Format profile : High@L4.1
Format settings, CABAC : Да
Format settings, RefFrames : 12 кадров
Codec ID : V_MPEG4/ISO/AVC
Duration : 1 ч. 51 м.
Bit rate : 1891 Кбит/сек
Width : 720 пикселей
Height : 356 пикселей
Display aspect ratio : 2,40:1
Original display aspect ratio : 2,40:1
Frame rate mode : Постоянный
Frame rate : 23,976 (24000/1001) кадра/сек
Color space : YUV
Chroma subsampling : 4:2:0
Bit depth : 8 бит
Scan type : Прогрессивная
Bits/(Pixel*Frame) : 0.308
Stream size : 1,47 Гбайт (68%)
Writing library : x264 core 152 r2851 ba24899
Encoding settings : cabac=1 / ref=12 / deblock=1:-1:-1 / analyse=0x3:0x133 / me=umh / subme=11 / psy=1 / psy_rd=1.00:0.07 / mixed_ref=1 / me_range=32 / chroma_me=1 / trellis=2 / 8x8dct=1 / cqm=0 / deadzone=21,11 / fast_pskip=0 / chroma_qp_offset=-3 / threads=11 / lookahead_threads=2 / sliced_threads=0 / nr=0 / decimate=0 / interlaced=0 / bluray_compat=0 / constrained_intra=0 / bframes=14 / b_pyramid=2 / b_adapt=2 / b_bias=0 / direct=3 / weightb=1 / open_gop=0 / weightp=2 / keyint=240 / keyint_min=23 / scenecut=0 / intra_refresh=0 / rc_lookahead=60 / rc=2pass / mbtree=1 / bitrate=1891 / ratetol=1.0 / qcomp=0.60 / qpmin=0 / qpmax=51 / qpstep=4 / cplxblur=15.0 / qblur=0.5 / vbv_maxrate=50000 / vbv_bufsize=62500 / nal_hrd=none / filler=0 / ip_ratio=1.40 / aq=2:1.00
Default : Да
Forced : Нет
Аудио #1
ID : 2
Format : AC-3
Format/Info : Audio Coding 3
Format settings, Endianness : Big
Codec ID : A_AC3
Duration : 1 ч. 51 м.
Bit rate mode : Постоянный
Bit rate : 448 Кбит/сек
Channel(s) : 6 каналов
Channel positions : Front: L C R, Side: L R, LFE
Sampling rate : 48,0 КГц
Frame rate : 31,250 кадров/сек (1536 SPF)
Bit depth : 16 бит
Compression mode : С потерями
Stream size : 358 Мбайт (16%)
Service kind : Complete Main
Default : Да
Forced : Нет
Аудио #2
ID : 3
Format : AC-3
Format/Info : Audio Coding 3
Format settings, Endianness : Big
Codec ID : A_AC3
Duration : 1 ч. 51 м.
Bit rate mode : Постоянный
Bit rate : 448 Кбит/сек
Channel(s) : 6 каналов
Channel positions : Front: L C R, Side: L R, LFE
Sampling rate : 48,0 КГц
Frame rate : 31,250 кадров/сек (1536 SPF)
Bit depth : 16 бит
Compression mode : С потерями
Stream size : 358 Мбайт (16%)
Language : new
Service kind : Complete Main
Default : Нет
Forced : Нет

Скриншоты

Релиз:
[Профиль] [ЛС]
Кто просматривает тему:

Форум Тема Автор Размер
Разная литература Гаспарян Армен - Убить Сталина. Реальные истории покушений и заговоров против советского вождя (2016) FB2 достали все 7 MB
Фильмы 2015 года Как убить свою жену / How to Murder Your Wife (Риккардо Пеллиццери / Riccardo Pellizzeri) [2015, Новая Зеландия, Черная комедия, HDTVRip-AVC] Sub Rus + Original Eng TorrentFilm 704 MB
Фильмы 2016 года Поймать, убить, выпустить / Capture Kill Release (2016) WEB-DLRip | L BOSS 1.37 GB
Разная литература Сергей Зверев | Убить бессмертие (2015) [FB2] достали все 832 KB
Зарубежные сериалы Смертельно скучающий / Убить скуку / Bored to Death / Сезон: 1-3 / Серии: 1-24 из 24 (Майкл Леманн, Адам Бернштейн, Алан Тейлор) [2009-2011, комедия, криминал, детектив, HDRip] MVO (Novamedia) +... Russian Mafia 10.52 GB
Фильмы (HD Rips | 720p, 1080p) Убить Билла: Дилогия / Kill Bill: Volume 1 & 2 (Квентин Тарантино / Quentin Tarantino) (2003-2004) США, Боевик, триллер, драма, криминал, BDRip 1080p] Dub + DVO (Гланц, Королева) + Original + Sub... ZeNArD 35.6 GB
Фильмы (DVD 5/9) Убить вечер (Eлeнa Жигaeвa) [2004, Россия, Мелодрама, DVD5] Original Rus TorrentFilm 3.88 GB
Документальные HD Убить гауляйтера. Приказ для троих (2014) HDTV 1080i от Files-х sergej644 1.95 GB
Показать сообщения:    

Текущее время: Сегодня 17:35

Часовой пояс: GMT



Вы не можете начинать темы
Вы не можете отвечать на сообщения
Вы не можете редактировать свои сообщения
Вы не можете удалять свои сообщения
Вы не можете голосовать в опросах
Вы не можете прикреплять файлы к сообщениям
Вы не можете скачивать файлы