Убить Билла: Дилогия / Kill Bill: Volume 1 & 2 (Квентин Тарантино / Quentin Tarantino) (2003-2004) США, Боевик, триллер, драма, криминал, BDRip 1080p] Dub + DVO (Гланц, Королева) + Original + Sub (rus, eng)

 
Автор Сообщение

Zithylord ®

Пол:

Стаж: 5 лет 10 месяцев

Сообщений: 114



Награды: 2 (Подробнее)

Mega Seeder 1 (Количество: 1) Mega Seeder 2 (Количество: 1)
Торрент-статистика

Создавать темы 19-Авг-2014 14:31

[Цитировать]

Убить Билла: Дилогия / Kill Bill: Volume 1 & 2Kill Bill: Vol. 1 Год выпуска: 2003
Страна: США
Жанр: Боевик, триллер, драма, криминал
Продолжительность: 01:50:40
Перевод: Профессиональный (полное дублирование)
Русские субтитры: есть-Режиссер: Квентин Тарантино / Quentin Tarantino
В ролях: Ума Турман, Люси Лью, Вивика А. Фокс, Дэрил Ханна, Дэвид Кэрредин, Майкл Мэдсен, Джули Дрейфус, Чиаки Курияма, Сонни Чиба, Джа Хуи Лью--Описание: В беременную наемную убийцу по кличке Черная Мамба во время бракосочетания стреляет человек по имени Билл. Пуля в голове жертвы, кровь на подвенечном платье, темнота… Но голова у Черной Мамбы оказалась крепкой.
Пролежав четыре года в коме, Невеста приходит в себя. Она горит желанием найти тех, кто ее предал. Теперь только безжалостная месть успокоит сердце Черной Мамбы, и она начинает убивать поочередно всех членов банды Билла, оставляя главаря напоследок.…-[kp]2717[/kp]
Качество:BDRip
Формат: MKV
Видео кодек:x264
Аудио кодек:AC3, DTS
Видео:1920x800 at 23,976 fps,@L4.1 x264, ~15,500 kbps
Аудио#1: Russian: 48 kHz, DTS 5.1 @ 768 Kbps - Дубляж
Аудио#2: Russian: 48 kHz, AC3 5.1 @ 384 Kbps - Многоголосый, закадровый
Аудио#3: Russian: 48 kHz, DTS 5.1 @ 768 Kbps - Одноголосый закадровый, А.Гаврилов
Аудио#4: Russian: 48 kHz, DTS 5.1 @ 768 Kbps - Одноголосый закадровый, Д.Гоблин
Аудио#5: Russian: 48 kHz, DTS 5.1 @ 1510 Kbps - Двухголосый закадровый, П. Гланц и И. Королёва
Аудио#6: English: 48 kHz, DTS 5.1 @ 1510 Kbps - Original
Субтитры: Russianx2, English
Сохранены оригинальные чаптеры как на Blu-ray.
.source vs encode-Mediainfo
Полное имя : Kill.Bill.Vol.1.2003.1080p.BluRay.x264.DTS-WiKi.mkv
Формат : Matroska
Версия формата : Version 2
Размер файла : 16,3 Гбайт
Продолжительность : 1 ч. 50 м.
Общий поток : 21,1 Мбит/сек
Название фильма : YiFan @ Wiki
Дата кодирования : UTC 2011-12-10 16:30:54
Программа кодирования : mkvmerge v5.0.0 ('Die Wahre Liebe') built on Sep 25 2011 20:33:49
Библиотека кодирования : libebml v1.2.2 + libmatroska v1.3.0
Attachment : Yes / Yes / Yes
Видео
Идентификатор : 1
Формат : AVC
Формат/Информация : Advanced Video Codec
Профиль формата : High@L4.1
Параметр CABAC формата : Да
Параметр ReFrames формата : 5 кадров
Идентификатор кодека : V_MPEG4/ISO/AVC
Продолжительность : 1 ч. 50 м.
Битрейт : 15,5 Мбит/сек
Ширина : 1920 пикселей
Высота : 800 пикселей
Соотношение сторон : 2,40:1
Частота кадров : 23,976 кадра/сек
Цветовое пространство : YUV
Субдискретизация насыщенности : 4:2:0
Битовая глубина : 8 бит
Тип развёртки : Прогрессивная
Бит/(Пиксели*Кадры) : 0.420
Размер потока : 11,6 Гбайт (71%)
Библиотека кодирования : x264 core 118 r2085 8a62835
Настройки программы : cabac=1 / ref=5 / deblock=1:-3:-3 / analyse=0x3:0x113 / me=tesa / subme=10 / psy=1 / psy_rd=1.02:0.02 / mixed_ref=1 / me_range=64 / chroma_me=1 / trellis=2 / 8x8dct=1 / cqm=0 / deadzone=21,11 / fast_pskip=0 / chroma_qp_offset=-5 / threads=9 / sliced_threads=0 / nr=0 / decimate=0 / interlaced=0 / bluray_compat=0 / constrained_intra=0 / bframes=10 / b_pyramid=2 / b_adapt=2 / b_bias=0 / direct=3 / weightb=1 / open_gop=0 / weightp=2 / keyint=250 / keyint_min=23 / scenecut=40 / intra_refresh=0 / rc_lookahead=120 / rc=2pass / mbtree=1 / bitrate=15453 / ratetol=1.0 / qcomp=0.60 / qpmin=0 / qpmax=69 / qpstep=4 / cplxblur=20.0 / qblur=0.5 / vbv_maxrate=38000 / vbv_bufsize=30000 / nal_hrd=none / ip_ratio=1.40 / aq=2:0.90
Язык : English
Аудио #1
Идентификатор : 2
Формат : DTS
Формат/Информация : Digital Theater Systems
Идентификатор кодека : A_DTS
Продолжительность : 1 ч. 50 м.
Вид битрейта : Постоянный
Битрейт : 755 Кбит/сек
Каналы : 6 каналов
Расположение каналов : Front: L C R, Side: L R, LFE
Частота : 48,0 КГц
Битовая глубина : 24 бит
Метод сжатия : С потерями
Размер потока : 598 Мбайт (4%)
Заголовок : DTS 5.1 @ 768 Kbps - Дубляж
Язык : Russian
Аудио #2
Идентификатор : 3
Формат : AC-3
Формат/Информация : Audio Coding 3
Расширение режима : CM (complete main)
Идентификатор кодека : A_AC3
Продолжительность : 1 ч. 50 м.
Вид битрейта : Постоянный
Битрейт : 384 Кбит/сек
Каналы : 6 каналов
Расположение каналов : Front: L C R, Side: L R, LFE
Частота : 48,0 КГц
Битовая глубина : 16 бит
Метод сжатия : С потерями
Размер потока : 304 Мбайт (2%)
Заголовок : AC3 5.1 @ 384 Kbps - Многоголосый, закадровый
Язык : Russian
Аудио #3
Идентификатор : 4
Формат : DTS
Формат/Информация : Digital Theater Systems
Идентификатор кодека : A_DTS
Продолжительность : 1 ч. 50 м.
Вид битрейта : Постоянный
Битрейт : 755 Кбит/сек
Каналы : 6 каналов
Расположение каналов : Front: L C R, Side: L R, LFE
Частота : 48,0 КГц
Битовая глубина : 24 бит
Метод сжатия : С потерями
Размер потока : 598 Мбайт (4%)
Заголовок : DTS 5.1 @ 768 Kbps - Одноголосый закадровый, А.Гаврилов
Язык : Russian
Аудио #4
Идентификатор : 5
Формат : DTS
Формат/Информация : Digital Theater Systems
Идентификатор кодека : A_DTS
Продолжительность : 1 ч. 50 м.
Вид битрейта : Постоянный
Битрейт : 755 Кбит/сек
Каналы : 6 каналов
Расположение каналов : Front: L C R, Side: L R, LFE
Частота : 48,0 КГц
Битовая глубина : 24 бит
Метод сжатия : С потерями
Размер потока : 598 Мбайт (4%)
Заголовок : DTS 5.1 @ 768 Kbps - Одноголосый закадровый, Д.Гоблин
Язык : Russian
Аудио #5
Идентификатор : 6
Формат : DTS
Формат/Информация : Digital Theater Systems
Идентификатор кодека : A_DTS
Продолжительность : 1 ч. 50 м.
Вид битрейта : Постоянный
Битрейт : 1510 Кбит/сек
Каналы : 6 каналов
Расположение каналов : Front: L C R, Side: L R, LFE
Частота : 48,0 КГц
Битовая глубина : 24 бит
Метод сжатия : С потерями
Размер потока : 1,17 Гбайт (7%)
Заголовок : DTS 5.1 @ 1510 Kbps - Двухголосый закадровый, П. Гланц и И. Королёва
Язык : Russian
Аудио #6
Идентификатор : 7
Формат : DTS
Формат/Информация : Digital Theater Systems
Идентификатор кодека : A_DTS
Продолжительность : 1 ч. 50 м.
Вид битрейта : Постоянный
Битрейт : 1510 Кбит/сек
Каналы : 6 каналов
Расположение каналов : Front: L C R, Side: L R, LFE
Частота : 48,0 КГц
Битовая глубина : 16 бит
Метод сжатия : С потерями
Размер потока : 1,17 Гбайт (7%)
Заголовок : DTS 5.1 @ 1510 Kbps - Original
Язык : English
Текст #1
Идентификатор : 8
Формат : UTF-8
Идентификатор кодека : S_TEXT/UTF8
Идентификатор кодека/Информация : UTF-8 Plain Text
Язык : Russian
Текст #2
Идентификатор : 9
Формат : UTF-8
Идентификатор кодека : S_TEXT/UTF8
Идентификатор кодека/Информация : UTF-8 Plain Text
Заголовок : Goblin
Язык : Russian
Текст #3
Идентификатор : 10
Формат : UTF-8
Идентификатор кодека : S_TEXT/UTF8
Идентификатор кодека/Информация : UTF-8 Plain Text
Язык : English
Меню
00:00:00.000 : en:00:00:00.000
00:02:27.856 : en:00:02:27.856
00:05:08.141 : en:00:05:08.141
00:09:50.214 : en:00:09:50.214
00:16:08.592 : en:00:16:08.592
00:19:52.024 : en:00:19:52.024
00:25:12.135 : en:00:25:12.135
00:32:19.062 : en:00:32:19.062
00:35:57.655 : en:00:35:57.655
00:45:02.407 : en:00:45:02.407
00:50:30.861 : en:00:50:30.861
00:58:39.724 : en:00:58:39.724
01:04:35.121 : en:01:04:35.121
01:13:12.221 : en:01:13:12.221
01:21:39.436 : en:01:21:39.436
01:30:05.733 : en:01:30:05.733
01:38:37.077 : en:01:38:37.077
01:41:46.099 : en:01:41:46.099
01:43:19.401 : en:01:43:19.401
01:50:42.635 : en:01:50:42.635
-Интересные факты о фильме...
Квентин Тарантино отодвинул начало съёмок фильма на один год из-за беременности Умы Турман.
На роль Билла рассматривались кандидатуры Уоррена Битти и Кевина Костнера.
Квентин Тарантино предложил Уме Турман сыграть невесту в день её тридцатилетия.
Желтый костюм Невесты – ссылка на «Игру смерти» (1978).
Для того чтобы добиться запоминающегося видеоряда, повторяющего китайские фильмы о восточных единоборствах 1970-х годов, Квентин Тарантино составил внушительный список картин, которые было необходимо посмотреть Роберту Ричардсону (оператор). В перечень фильмов вошли картины Че Чанга и братьев Шоу. Тарантино также запретил использование компьютерных спецэффектов. Квентин настоял на том, чтобы извергающиеся фонтаны крови были сделаны в традиционном стиле фильмов Чанга: презервативы, наполненные бутафорской кровью, разбрызгивают содержимое при давлении на них.
Некоторая часть съёмок прошла на легендарной студии «Shaw Bros. studio» в Гонконге.
Во время съёмок Квентин Тарантино постоянно придумывал новые сцены, поэтому для фильма было отснято огромное количество материала.
Часть миниатюрных декораций Токио была позаимствована с картины о Годзилле «Gojira, Mosura, Kingu Gidor�: Daikaij� s�k�geki» (2001).
По словам Квентина Тарантино, вся музыка к фильму была позаимствована из других картин. Квентин подбирал музыку из своей обширной коллекции саундтреков.
Квентин Тарантино подтвердил, что «Deadly Viper Assassination Squad (DiVAS)» (Боевики отряда убийц – смертоносные гадюки) был основан на «Fox Force Five», вымышленном телевизионном сериале, где Миа Уоллес (Ума Турман) из «Криминального чтива» (1994) играла одну из ролей.
На съёмках первой и второй частей фильма было использовано 450 галлонов бутафорской крови.
По словам Квентина Тарантино, персонаж Сонни Чибы, Хаттори Ханзо, является потомком главного героя сериала «Hattori Hanz�: Kage no Gundan» (1980).
Первоначальное кодовое имя Верниты Грин (Вивика Фокс) – «Кобра» (Cobra). Однако впоследствии оно было изменено на «Мокасиновую змею».
На финальных титрах сказано, что фильм основан на персонаже Невеста, созданном К и У. «К» и «У» означают Квентин Тарантино и Ума Турман.
Имена членов «DiVAS» повторяют названия змей: Рогатая гремучая змея (Sidewinder), Чёрная мамба (Black Mamba), Гремучая змея (Cottonmouth), Мокасиновая змея (Copperhead), Калифорнийская горная змея (California Mountain snake). Вдобавок, точно также звали врагов Капитана Америки.
Мелодия, которую насвистывает героиня Дэрил Ханны в холле больницы, - это та же самая мелодия, которую напевал молодой человек в «Twisted Nerve» (1968).
Квентин Тарантино и студия «Miramax» выкупили права на песню из картины «Du bi quan wang da po xue di zi» (1975).
Маски, которые носят члены «88 бешеных», - ссылка на маску Кейто (Брюс Ли) в «Зеленом шершне» (1966).
Черно-белые сцены – ссылка на телеверсии фильмов о кунг-фу, вышедших в США в 1970-1980-е годы. Прокатчики намеренно «окрашивали» картины в черно-белые цвета, для того чтобы избежать претензии цензоров по поводу фонтанов крови. Изначально в фильме Квентина не должно было быть черно-белых сцен, но по настоянию комиссии по рейтингам некоторые эпизоды пришлось обесцветить.
Майкл Паркс сыграл шерифа Эрла МакГроу. Точно также звали персонажа Паркса в картине «От заката до рассвета» (1996), только там он был техасским рейнджером.
Бак, медбрат, позволяющий заниматься сексом с Невестой, говорит: «Мы четко пришли к согласию по первому правилу?». Точно такую же фразу произносит персонаж Джорджа Клуни в фильме «От заката до рассвета» (1996).
Когда детективы заходят в церковь, можно услышать, что кто-то настраивает радио на нужную станцию: перед тем как будет сделан окончательный выбор, играет «�D�nde Est�?». В «Бешеных псах» (1992), в сцене пытки, мистер Блондин также ищет подходящую радиостанцию, и перед тем как остановить свой выбор на «K-BILLY», мы также слышим «�D�nde Est�?».
В первоначальной версии сценария, Билл гораздо чаще использовал различные эликсиры и сыворотки собственного производства. Его специальная сыворотка называлась «Прощай навсегда» (Goodbye Forever). В фильме должно было присутствовать детальное описание данного эликсира в виде субтитров. Невеста применяла сыворотку под названием «Неоспоримая правда» (The Undisputed Truth), для того чтобы получить информацию от Софи Феталь.
В начальной версии сценария, Джонни Мо звали мистер Баррел. Невеста убеждала его не драться с ней, он соглашался и оставлял О-Рен без телохранителей.
Въезд в туннель в Токио – это на самом деле въезд в туннель в Лос-Анджелесе, только с добавленными дорожными знаками на японском языке.
Эрл МакГроу (Майкл Паркс) называет своего сына «сын номер один», что является ссылкой на фильмы Чарли Чана.
У Бака точно такие же солнцезащитные очки в стиле Элвиса, как и у Кларенса Уорли (Кристиан Слэйтер) из «Настоящей любви» (1993).
Фраза «Месть – это блюдо, которое следует подавать холодным» позаимствована из картины «Звездный путь 6: Ненайденная страна» (1991).
Музыка, которая играет перед началом боя между Невестой и Мокасиновой змеёй (Вивика Фокс), Невестой и Гремучей змеёй (Люси Лью), - это главная тема сериала «Ironside» (1967).
Музыка, играющая в сцене, где Невеста приезжает в Токио, - главная музыкальная тема «Зеленого шершня» (1966).
Музыкальная тема сериала «Зеленый шершень» (1966) звучит в сцене, где Невеста мчится на мотоцикле по ночному Токио.
Фраза Бака «Меня зовут Бак, и я устрою трах» была впервые произнесена Робертом Инглундом в фильме «Съеденные заживо» (1977).
Множество солнцезащитных очков на приборной доске в машине шерифа – ссылка на начало «Угнать за 60 секунд» (1974).
Японские иероглифы на заднем фоне на постере фильма читаются как «kirubiru», что означает «Убить Билла».
Когда Невеста обращается к тем, кто выжил из «88 бешеных», Квентин Тарантино находится среди них.
Сцена драки в «Доме Голубых Листьев» - это ссылка на фильм Брюса Ли «Кулак ярости» (1972).
По словам Квентина Тарантино, он изначально планировал занять в фильме трех актеров разной национальности, представляющих соответствующую страну: Джа Хуи Лью – Китай, Сонни Чиба – Япония, Дэвид Кэррадайн – США. По словам Тарантино, если бы был жив Брюс Ли, Квентин сделал бы всё возможное, чтобы он появился в фильме.
Сцена в церкви снималась в пустыне Мохаве.
Название второй главы – «Окровавленная невеста» - это ссылка на фильм «Novia ensangrentada, La» (1972), который вышел в США под названием «Окровавленная невеста» (The Blood Splattered Bride).
Во время церемонии, где Хаттори Ханзо (Сонни Чиба) передает меч Невесте, он говорит: «Даже если на твоём пути окажется сам Будда, он будет разрублен». Точно такую же фразу слышал персонаж Сонни Чибы, принимая недавно сделанный меч, в фильме Кинджи Фукасаку «Перевоплощение самурая» (1981).
Приблизительно $65 000 было потрачено на создание мечей.
В каждом из своих фильмов Квентин Тарантино создает продолжительную сцену, снятую одним планом. В «Убить Билла» такой сценой стала: Невеста отходит от двери комнаты О-Рен в «Доме Голубых Листьев» (когда ГоГо возвращается в комнату), мы следуем за ней вниз по лестнице через бар, проходим кухню, заходим в женский туалет. Затем мы выходим из туалета, возвращаемся на лестницу, встречаем Софи и следуем за ней в женский туалет. Конец сцены – звонок сотового телефона. Всё это было снято одним планом, без монтажных склеек. Подготовка к съёмкам продолжалась шесть часов. Сцена была снята с первого дубля. По слухам, после того как завершились съёмки, Ларри МакКонки (оператор) упал в обморок из-за физического истощения.
В ресторане Невеста убивает 57 человек.
«Убить Билла часть 1» стал первой картиной, получившей в Канаде рейтинг «R» согласно новым правилам по рейтингам фильмов. По старой системе рейтингов фильм, скорее всего, получил бы «18A» – лица моложе восемнадцати лет должны быть в сопровождении лиц старше восемнадцати. Согласно новой системе рейтингов, «R» означает – лица младше 18 на просмотр фильма не допускаются.
При съёмках сцены, в которой Чиаки Курияму (ГоГо) бросает металлический шар на цепи, она случайно попала в голову Квентина Тарантино, стоявшего в это время за камерой.
Квентин Тарантино является большим поклонником фильма «Королевская битва» (2000), поэтому он пригласил Чиаки Курияму, сыгравшую Такако Чигусу в «Королевской битве», на роль ГоГо Юбари.
Жуткая музыка, звучащая на заднем фоне, после того как Невеста нападает на насильника, позаимствована из фильма Лучио Фулчи «Sette note in nero» (1977).
Композиция «Ode to O-Ren Ishii» - это заглавный трек из фильма «Sette note in nero» (1977).
Квентин Тарантино выбрал Джана Кунимуру на роль Босса Танаки, после того как увидел его в «Koroshiya 1» (2001).
В реальной жизни «Шмаровозка» (Pussy Wagon) принадлежит Квентину Тарантино.
Несмотря на то, что в фильме ни разу не произносится имя Невесты, его можно узнать, внимательно посмотрев на её билет на Окинаву, где как раз и указано полное имя героини Умы Турман.
По словам Квентина Тарантино, если бы Уоррен Битти согласился сыграть Билла, то персонаж получился бы в стиле Джеймса Бонда.
Песня, которая играет после поединка между Невестой и О-Рен, - это главная тема из «Госпожи Кровавый Снег» (1973). Название песни – «Shura no hana».
Изначально Квентин Тарантино планировал пригласить японскую актрису на роль О-Рен Ишии. Однако незадолго до начала кастинга он увидел Люси Лью в «Шанхайском полдне» (2000) и незамедлительно изменил национальность О-Рен, для того чтобы Люси могла сыграть данную роль.
Иероглифы, бегущие сверху вниз с левой стороны экрана в начальных сценах, - kanji и hiragana, читающиеся как «Hana yome ga kuru, hana yome ga kuru…», что означает «Невеста идет, невеста идет…»
Героиню Дэрил Ханны зовут Элли Драйвер (Elle Driver). Компания, которая была ответственна за «Full Tilt Boogie» (1997), документального фильма о съёмках «От заката до рассвета» (1996), называется «L. Driver Productions».
Карта, с помощью которой мы можем следить за путешествием Невесты по всему миру, также появляется в «Джеки Браун» (1997).
Коробка, в которой находится пистолет Верниты Грин, - это коробка из-под хлопьев «KaBoom!».
Часть музыки, играющей в анимированной сцене, позаимствована из фильма «Однажды на Диком Западе» (1968).
Драка в «Доме Голубых Листьев» - это дань уважения фильму Майкла Чимино «Год дракона» (1985).
В первоначальной версии сценария у ГоГо была сестра-близнец Юки. После смерти ГоГо от рук Невесты Юки попыталась отомстить, но также погибла. Данной сюжетной линии была посвящена отдельная глава под названием «Месть Юки». Если бы фильм снимался по первоначальному сценарию, то все фразы ГоГо были бы сказаны Юки.
Сцена, где Невеста дерется на фоне синего экрана, и мы смотрим на её силуэт, - это ссылка на «Самурайскую историю» (1998).
В кадре, где Невеста разрубает напополам бейсбольный мячик, отсутствуют спецэффекты. Зои Белл, каскадер-дублер Умы Турман, исполнила данный трюк.
По словам Тарантино, сцена, где Элли идет в больничную палату Невесты, и происходит деление экрана напополам, - дань уважения Брайану Де Пальме.
Когда Невеста стоит возле дома Верниты Грин, то играет джингл грузовичка с мороженным. В первой версии сценария, Юки Юбари преследовала Невесту на грузовике с мороженным, пытаясь отомстить за смерть своей сестры, ГоГо.
Начальная сцена фильма – ссылка на схожую сцену в фильме «Хороший, плохой, злой» (1966), где Эли Уоллах наставлял пистолет на Клинта Иствуда.
Джули Дрейфус говорит в фильме на трех языках: японском, французском и английском. В реальной жизни Джули свободно владеет перечисленными языками.
Согласно сингон, одной из основных буддистских школ в Японии, число 88 представляет собой всё зло в мире.
Квентин Тарантино писал сценарий фильма в течение шести лет. Черновая версия, не поделенная на две части, занимала 220 страниц. В настоящее время её можно легко найти в Интернете.
Когда Невеста приезжает в Токио, можно заметить рекламу сигарет «Red Apple». Это – вымышленная торговая марка, которая присутствует во всех фильмах Тарантино. Также в «Убить Билла» можно заметить Джули Дрейфус, сыгравшую Софи, на плакатах в Токио, рекламирующую сигареты «Red Apple».
«Убить Билла» стал первой картиной в карьере Квентина Тарантино, где слово «fuck» произносится по ходу действия фильма менее ста раз: всего семнадцать раз.
В анимированной сцене фраза О-Рен «Посмотри на меня внимательно. Я похожа на одну из тех, кого ты убил?» позаимствована из «Госпожи Кровавый Снег» (1973), только Тарантино изменил «изнасиловал» на «убил».
ГоГо Юбари – это не настоящее японское имя. «ГоГо» - это сокращение от Мака ГоГоГо, персонажа японского аниме, которое очень нравилось Квентину в детстве. Юбари – название маленького города на острове Хоккайдо, северная Япония. В первый раз Тарантино приехал в Японию на «Международный фестиваль фантастических фильмов в Юбари», где представлял свою первую картину «Бешеные псы» (1992).
Изначально Майкл Мэдсен должен был сыграть Джонни Мо, однако впоследствии Квентин Тарантино посчитал, что он более подходит на роль Бадда.
Дэвид Кэррадайн подтвердил, что Билл является убийцей родителей О-Рен Ишии.
Фраза, которую говорят О-Рен и Невеста в «Доме голубых Листьев» - «Silly rabbit / Trix are for kids» - это ссылка на рекламный слоган овсяной каши, а также это – анаграмма имени Невесты.
Шериф (Майкл Паркс) в фильмах «Убить Билла»,«Планета страха»и «Доказательство смерти» - это один и тот же человек. Действия фильма (где в эпизодах он) происходят в Техасе.
Квентин Тарантино во многих своих проектах сотрудничает с Робертом Родригесом. За музыку к фильму «Убить Билла» Тарантино заплатил Родригесу $1. Тот не остался в долгу и заплатил Тарантино как приглашённому режиссёру в «Городе грехов» тоже $1. Но пообещал, что во второй части фильма всё будет уже по-серьёзному и он заплатит Квентину $2.
--x264 log
x264 [info]: frame I:998 Avg QP:17.23 size:217514
x264 [info]: frame P:35150 Avg QP:17.97 size:122542
x264 [info]: frame B:123140 Avg QP:20.35 size: 67310
-Kill Bill: Vol. 2 Год выпуска: 2004
Страна: США
Жанр: Боевик, триллер, драма, криминал
Продолжительность:02:16:57
Перевод: Профессиональный (полное дублирование)
Русские субтитры: есть-Режиссер:Квентин Тарантино / Quentin Tarantino
В ролях: Ума Турман, Дэвид Кэрредин, Люси Лью, Вивика А. Фокс, Джа Хуи Лью, Майкл Мэдсен, Дэрил Ханна, Майкл Паркс, Бо Свенсон, Дженни Эппер--Описание: Вычеркнув двоих из смертельного списка, Невеста лишь наполовину приблизилась к цели. Теперь на очереди Бад и Элли Драйвер, уже приговоренные воскресшей жертвой! Еще два опасных шага перед последней схваткой, в которой она должна Убить Билла!..-Top 250: #141
[kp]47015[/kp]
За дороги большое спасибо!
Рипы от: WiKi
Качество:BDRip
Формат: MKV
Видео кодек:x264
Аудио кодек:DTS
Видео:1920x800 at 23,976 fps,@L4.1 x264, ~15,600 kbps
Аудио#1: Russian: 48 kHz, DTS 5.1 @ 768 Kbps - Дубляж
Аудио#2: Russian: 48 kHz, DTS 5.1 @ 768 Kbps - Одноголосый закадровый, А.Гаврилов
Аудио#3: Russian: 48 kHz, DTS 5.1 @ 1510 Kbps - Двухголосый закадровый, П. Гланц и И. Королёва
Аудио#4: English: 48 kHz, DTS 5.1 @ 1510 Kbps - Original
Субтитры:Russian, English
Сохранены оригинальные чаптеры как на Blu-ray
.source vs encode-Mediainfo
Полное имя : Kill.Bill.Vol.2.2004.1080p.BluRay.x264.DTS-WiKi.mkv
Формат : Matroska
Версия формата : Version 2
Размер файла : 19,3 Гбайт
Продолжительность : 2 ч. 16 м.
Общий поток : 20,2 Мбит/сек
Название фильма : Kill Bill: Vol. 2 (2004)
Дата кодирования : UTC 2011-12-10 16:47:06
Программа кодирования : mkvmerge v5.0.0 ('Die Wahre Liebe') built on Sep 25 2011 20:33:49
Библиотека кодирования : libebml v1.2.2 + libmatroska v1.3.0
Attachment : Yes / Yes / Yes
Видео
Идентификатор : 1
Формат : AVC
Формат/Информация : Advanced Video Codec
Профиль формата : High@L4.1
Параметр CABAC формата : Да
Параметр ReFrames формата : 5 кадров
Идентификатор кодека : V_MPEG4/ISO/AVC
Продолжительность : 2 ч. 16 м.
Битрейт : 15,6 Мбит/сек
Ширина : 1920 пикселей
Высота : 800 пикселей
Соотношение сторон : 2,40:1
Частота кадров : 23,976 кадра/сек
Цветовое пространство : YUV
Субдискретизация насыщенности : 4:2:0
Битовая глубина : 8 бит
Тип развёртки : Прогрессивная
Бит/(Пиксели*Кадры) : 0.425
Размер потока : 14,6 Гбайт (76%)
Библиотека кодирования : x264 core 118 r2085 8a62835
Настройки программы : cabac=1 / ref=5 / deblock=1:-3:-3 / analyse=0x3:0x113 / me=tesa / subme=10 / psy=1 / psy_rd=1.02:0.02 / mixed_ref=1 / me_range=64 / chroma_me=1 / trellis=2 / 8x8dct=1 / cqm=0 / deadzone=21,11 / fast_pskip=0 / chroma_qp_offset=-5 / threads=9 / sliced_threads=0 / nr=0 / decimate=0 / interlaced=0 / bluray_compat=0 / constrained_intra=0 / bframes=10 / b_pyramid=2 / b_adapt=2 / b_bias=0 / direct=3 / weightb=1 / open_gop=0 / weightp=2 / keyint=250 / keyint_min=23 / scenecut=40 / intra_refresh=0 / rc_lookahead=120 / rc=2pass / mbtree=1 / bitrate=15640 / ratetol=1.0 / qcomp=0.60 / qpmin=0 / qpmax=69 / qpstep=4 / cplxblur=20.0 / qblur=0.5 / vbv_maxrate=38000 / vbv_bufsize=30000 / nal_hrd=none / ip_ratio=1.40 / aq=2:0.90
Язык : English
Аудио #1
Идентификатор : 2
Формат : DTS
Формат/Информация : Digital Theater Systems
Идентификатор кодека : A_DTS
Продолжительность : 2 ч. 16 м.
Вид битрейта : Постоянный
Битрейт : 755 Кбит/сек
Каналы : 6 каналов
Расположение каналов : Front: L C R, Side: L R, LFE
Частота : 48,0 КГц
Битовая глубина : 24 бит
Метод сжатия : С потерями
Размер потока : 739 Мбайт (4%)
Заголовок : DTS 5.1 @ 768 Kbps - Дубляж
Язык : Russian
Аудио #2
Идентификатор : 3
Формат : DTS
Формат/Информация : Digital Theater Systems
Идентификатор кодека : A_DTS
Продолжительность : 2 ч. 16 м.
Вид битрейта : Постоянный
Битрейт : 755 Кбит/сек
Каналы : 6 каналов
Расположение каналов : Front: L C R, Side: L R, LFE
Частота : 48,0 КГц
Битовая глубина : 24 бит
Метод сжатия : С потерями
Размер потока : 739 Мбайт (4%)
Заголовок : DTS 5.1 @ 768 Kbps - Одноголосый закадровый, А.Гаврилов
Язык : Russian
Аудио #3
Идентификатор : 4
Формат : DTS
Формат/Информация : Digital Theater Systems
Идентификатор кодека : A_DTS
Продолжительность : 2 ч. 16 м.
Вид битрейта : Постоянный
Битрейт : 1510 Кбит/сек
Каналы : 6 каналов
Расположение каналов : Front: L C R, Side: L R, LFE
Частота : 48,0 КГц
Битовая глубина : 24 бит
Метод сжатия : С потерями
Размер потока : 1,44 Гбайт (7%)
Заголовок : DTS 5.1 @ 1510 Kbps - Двухголосый закадровый, П. Гланц и И. Королёва
Язык : Russian
Аудио #4
Идентификатор : 5
Формат : DTS
Формат/Информация : Digital Theater Systems
Идентификатор кодека : A_DTS
Продолжительность : 2 ч. 16 м.
Вид битрейта : Постоянный
Битрейт : 1510 Кбит/сек
Каналы : 6 каналов
Расположение каналов : Front: L C R, Side: L R, LFE
Частота : 48,0 КГц
Битовая глубина : 24 бит
Метод сжатия : С потерями
Размер потока : 1,44 Гбайт (7%)
Заголовок : DTS 5.1 @ 1510 Kbps - Original
Язык : English
Текст #1
Идентификатор : 6
Формат : UTF-8
Идентификатор кодека : S_TEXT/UTF8
Идентификатор кодека/Информация : UTF-8 Plain Text
Язык : Russian
Текст #2
Идентификатор : 7
Формат : UTF-8
Идентификатор кодека : S_TEXT/UTF8
Идентификатор кодека/Информация : UTF-8 Plain Text
Язык : English
Меню
00:00:00.000 : en:00:00:00.000
00:02:01.121 : en:00:02:01.121
00:05:28.411 : en:00:05:28.411
00:14:50.889 : en:00:14:50.889
00:18:08.420 : en:00:18:08.420
00:22:52.913 : en:00:22:52.913
00:30:55.603 : en:00:30:55.603
00:39:14.185 : en:00:39:14.185
00:57:33.783 : en:00:57:33.783
01:03:06.908 : en:01:03:06.908
01:14:42.060 : en:01:14:42.060
01:21:13.952 : en:01:21:13.952
01:27:48.346 : en:01:27:48.346
01:32:15.154 : en:01:32:15.154
01:40:08.043 : en:01:40:08.043
01:49:35.985 : en:01:49:35.985
01:55:12.572 : en:01:55:12.572
02:02:08.904 : en:02:02:08.904
02:04:03.185 : en:02:04:03.185
02:16:56.833 : en:02:16:56.833
-Интересные факты о фильме...
Впервые фильм был продемонстрирован в городе под названием Остин, штат Техас. Завершился он пятиминутным шквалом непрекращающихся оваций. Впечатление было настолько велико, что продюсер Харви Вайнштейн отказался вносить в финальный вариант фильма какие бы то ни было изменения.
История судьбы мастера Пей Мея рассказывается при помощи флейты под музыку из сказки композитора Прокофьева «Петя и Волк». Пей-Мей означает «Белая бровь»
Глава «Месть Юки» была вырезана из фильма для того, чтобы появилась другая глава — «Резня меж двух сосен», в которой детально показано нападение на Невесту.
Глава номер 8 носит гордое название «Одинокая могила Паулы Шульц». Глава названа именно так по мотивам фильма 1968 года «Невероятные мечты Паулы Шульц», романтической комедии, в которой роль Паулы исполнила Эльке Соммер, а роль Билла — Боб Крейн.
Роль мастера Пей Мея по задумке Квентина должен был сыграть хореограф Ву-Пинг Юань, однако по состоянию здоровья не смог справиться с предложенным заданием. В конечном итоге роль сыграл Гордон Лиу, в первой части сыгравший роль Джонни Мо, главаря токийского клана убийц.
Одну из сцен Квентин написал уже в процессе съемок фильма. Она заменила довольно рискованый момент с участием Л.Ф. О`Бойла. Этой сценой в конечном варианте фильма стали воспоминания Невесты об одном из первых убийств, совершенном самим Биллом.
Пэй Мэй появляется в нескольких фильмах братьев Шоу, включая «Клан Белого Лотоса» (1980).
В фильме содержится несколько ссылок на «Бешеных псов» (1992), включая: - Невеста достает лезвие из ковбойского сапога. В «Бешеных псах» то же самое делал мистер Блондин (Майкл Мэдсен). - В разговоре между Невестой и Биллом, последний говорит, что огнестрельная рана в колено весьма болезненна. В «Бешеных псах» мистер Белый (Харви Кейтель) говорит мистеру Оранжевому (Тим Рот): «Раны в колено и в живот – это всегда самые болезненные раны». - Бадд (Майкл Мэдсен) стоит в дверном проеме своего трейлера в той же самой позе, что и мистер Блондин в «Бешеных псах» (1992).
Изначально Квентин Тарантино намеревался создать имитацию плохого дубляжа Пэй Мэя: в то время как он говорит на кантонском наречии, зритель слышит дублированную английскую версию. Тарантино собирался подарить собственный голос для дубляжа, однако, в конце концов, решил, что Пэй Мэй должен разговаривать на своем родном языке, а зритель читать субтитры.
Во всех сценах между Баддом и Невестой последняя ни разу не произносит ни одного слова.
Образ Пэй Мэя основан на актере Кьюнгфу Пане.
Машина Билла, на которой он приезжает к Бадду, - итальянский концепт-кар «De Tomaso Mangusta».
В сценарии Пэй Мэй – мастер техники десяти пальцев, разрывающих сердце; в фильме – мастер техники пяти пальцев, разрывающих сердце.
По словам Билла (Дэвид Кэррадайн), Невеста (Ума Турман) – прирожденная убийца. Квентин Тарантино написал сценарий фильма «Прирожденные убийцы» (1994).
Билл (Дэвид Кэррадайн) играет на большой деревянной флейте. Это – та же самая флейта, на которой играл персонаж Дэвида в сериале «Кунг-фу» (1972).
После боя между Элли и Невестой, Элли, корчась от боли на полу, кричит и расшвыривает предметы почти точно так же, как и Прис из «Бегущего по лезвию» (1982), которую также сыграла Дэрил Ханна.
Музыка, которая играет в момент, когда Бадд стреляет в Невесту, позаимствована из фильма «За пригоршню долларов» (1964).
Сигареты, которые курят в фильме, - «American Spirits». Их логотип можно заметить при крупных планах того или иного персонажа. Также в картине появляется вымышленная сигаретная марка «Red Apple», которую Тарантино использует во всех своих фильмах.
После выхода картины Квентин Тарантино заявил, что когда-нибудь он точно сделает еще два фильма о вселенной «Убить Билла». Первый из них должен рассказать предысторию «DiVAS» и будет сделан в виде аниме. Действие второго будет происходить в будущем, где повзрослевшая дочка Верниты Грин (Вивика Фокс), Никки (Амброзия Келли), попытается отомстить Невесте за убийство своей матери.
В трейлере Бадда можно заметить постер фильма «Мистер Маджестик» (1974). В «Настоящей любви» (1993), сценарий которой написал Квентин Тарантино, Дрексл (Гари Олдман) называет Кларенса (Кристиан Слэйтер): «Долбанный Чарли Бронсон. Мистер Маджестик».
В реальной жизни, автомобиль Элли - 1980 Pontiac Trans-Am – принадлежит Дэрил Ханне.
В заключительной сцене фильма, Ума Турман сидит на диване точно так же, как и её персонаж в «Криминальном чтиве» (1994).
В фильме содержится несколько ссылок на «Криминальное чтиво» (1994), включая: - В сцене, где Невеста разговаривает с подосланной к ней убийцей, она говорит: «Я – самая опасная женщина в мире». В пилотном выпуске сериала, где снималась Миа Уоллес (Ума Турман), точно так же была охарактеризована её героиня.
Гонорар Роберта Родригеза за несколько музыкальных композиций для фильма составил 1 доллар. Точно такой же гонорар получил Квентин Тарантино за свою работу в «Городе грехов» (2005).
В заключительном разговоре между Невестой и Биллом, она говорит, что была готова запрыгнуть на мотоцикле на движущийся поезд. Это – ссылка на трюк в исполнении Мишель Йео в «Полицейской истории 3: Суперполицейский» (1992).
Номер квартиры Билла в Мексике – 101. Точно такой же номер квартиры был у Нео в «Матрице» (1999). Ву-Пин Юэн поставил боевые сцены для обоих фильмов. Вдобавок, комната 101 – это ссылка на книгу Джорджа Оруэлла «1984», где в данной комнате обитает то, что ты боишься больше всего.
Ларри называет Бадда бесполезным, как задница на локте. Ларри Бишоп произносил точно такую же фразу в «The Savage Seven» (1968).
Для фильма было снято несколько сцен с участием Майкла Джей Уайта, однако они не попали в финальный вариант картины. Единственная сцена, где присутствует его персонаж, доступна на DVD в разделе «Удаленные сцены».
Номерной знак автомобиля Билла - JE2336. В фильме его не показывают, однако он хорошо заметен на фотографиях со съёмок.
Мультфильм, который вместе смотрят БиБи и Невеста в конце фильма, - «The Talking Magpies» (1946).
Когда Невеста идет в комнату Билла, она проходит мимо нескольких клерков из обслуги. Один из них – Лоуренс Бендер, продюсер фильма.
В отличие от предыдущих картин Квентина Тарантино (включая «Убить Билла часть 1») финальные титры не начинаются с титра «режиссер и сценарист Квентин Тарантино». Его имя появляется последним, перед тем как «поползут» обычные заключительные титры.
Две ссылки на «Искателей» (1956): - Невеста выходит на крыльцо церкви, перед тем как встретить Билла. - Невеста выходит из трейлера Бадда после драки с Элли Драйвер. Данный кадр идентичен финальному кадру из «Искателей», где Джон Уэйн уходит в пустыню, перед тем как захлопывается дверь дома.
На первоначальных постерах фильма написано: «Пятый фильм Квентина Тарантино». На последующих афишах данный слоган был заменен фразой «Новый фильм Квентина Тарантино».
Когда учительница начальных классов делает перекличку, то среди прочих имен она называет Марти Китроссера. Мартин Китроссер был супервайзером всех сценариев Квентина Тарантино.
Повязка на глаз у Элли Драйвер – это ссылка на фильм Джека Хилла «Switchblade Sisters» (1975). Сид Хэйг, часто игравший в картинах Джека, исполнил в данном фильме роль бармена в стриптиз-баре, где работает Бадд.
Белую «Хонду», на которой попал в аварию Бутч в «Криминальном чтиве» (1994) и которая также присутствовала в «Джеки Браун» (1997), можно заметить на стоянке возле стриптиз-клуба, где работает Бадд.
Название сыворотки правды Билла – «Неоспоримая правда» - повторяет название соул-группы 1970-х гг.
В первоначальной версии сценария фильма финальная схватка между Биллом и Невестой должна была происходить на пляже под лунным светом. Невеста должна была быть одета в свое подвенечное платье. Когда стало ясно, что съёмки фильма затягиваются на непозволительно долгое время, Харви Вайнштейн потребовал от Тарантино переписать концовку, для того чтобы сократить период съёмок. В готовом фильме Билл лишь вскользь упоминает о таком поединке, а также на афишах картины Невеста изображена в свадебном платье, держащая меч.
В одном из интервью Квентин Тарантино подтвердил, что образ Элли Драйвер был создан на основе героини Кристины Линдберг в «Thriller - en grym film» (1974).
Эстебан (Майкл Паркс) говорит Невесте, что вилла Билла находится по дороге к Салине. Это – ссылка на фильм Риты Хэйуорт «Road to Salina» (1971).
Бутылка шнапса, которую держит Бадд при разговоре с Биллом, называется «Black Death».
На своем пути к трейлеру Бадда (после того как она выбралась из могилы), Невеста идет через пустыню. Её фигура постепенно преобразуется из размытой картинки в четкий силуэт. Это – ссылка на Генри Фонду в «Однажды на Диком Западе» (1968).
Когда Билл начинает рассказывать легенду о Пэй Мэе, он говорит: «Однажды в Китае…» (Once upon a time in China...). Один из фильмов Джета Ли называется «Однажды в Китае» (1991).
Братьев, сыгранных Дэвидом Кэррадайном и Майклом Мэдсеном, зовут Билл и Бадд. Главного персонажа романа Германа Мелвилла звали Билли Бадд.
Пистолет Билла - Colt Single Action Army, «Peacemaker».
Элли говорит: «Теперь слушай внимательно, т.к. это касается тебя». Точно такую же фразу произносит персонаж Сэмюэля Л. Джексона в фильме «Джеки Браун» (1997).
На репетиции свадьбы Билл говорит Невесте: «Мне не безразлично, кто женится на моей девочке». Это – ссылка на «Его девушка пятница» (1940), где точно такую же фразу произносит персонаж Кэри Гранта.
Когда Невеста выходит на крыльцо церкви, играет музыка из фильма «Хороший, плохой, злой» (1966).
Отчасти в основе рассуждений Билла о Супермене лежит книга Джулса Файффера «Великие герои комиксов» (The Great Comic Book Heroes).
Среди вариантов финальной схватки Билл предлагает Невесте старомодный бой на мечах на пляже на восходе солнца, что является ссылкой на последний поединок в самурайской трилогии Хироши Инагаки «Самурай 3: Поединок на острове» (1956).
Музыка, играющая в сцене, где Невеста выбирается из могилы, позаимствована из картины «Mercenario, Il» (1968).
В данной картине у Невесты отсутствует «Шмаровозка», т.к. в оригинальном сценарии, Юки Юбари, сестра ГоГо, разбивала её некоторое время спустя после убийства Верниты Грин.
Дождитесь окончания финальных титров, т.к. за ними следует небольшая сцена.
Квентин Тарантино известен своей нелюбовью к продакт-плейсменту, поэтому он всегда использует в своих фильмах вымышленные торговые марки. Однако данная картины стала исключением из правил: хлеб, который Билл использует для сэндвичей во время рассказа истории об Эмилио - BIMBO, реально-существующая торговая марка хлеба, очень популярная в Мексике.
Мы узнаем, что Биллу было пять лет, когда он посмотрел в кинотеатре «Почтальон всегда звонит дважды» (1946), следовательно, можно предположить, что он родился в 1941 году.
Когда Невеста и БиБи лежат в кровати, по телевизору идет сериал «Shane» (1966), где одну из ролей сыграл Дэвид Кэррадайн.
Музыка, которая играет в сцене смерти Билла, - главная музыкальная тема из фильма «Навахо Джо» (1966), которую также можно услышать в «Выскочке» (1999).
До того как было изменено название шестой главы с «Может ли она испечь вишневый пирог?» (Can She Bake a Cherry Pie?) на «Резня в часовне «Две сосны» (Massacre at Two Pines), жена Сэмюэля Л. Джексона, ЛаТаня Ричардсон должна была сыграть владелицу казино, которая погибала от рук Билла.
Джули Дрейфус предложила две музыкальные композиции для фильма. Первая из них – «The Chase» – звучит в сцене, где Элли едет к Бадду; вторая – «The Sunny Road To Salina» – Невеста идет по пустыне к трейлеру Бадда.
Номерной знак джипа Билла, когда он привозит Невесту к Пэй Мэю, - «THX 1169», что является ссылкой на картину Джорджа Лукаса «Галактика THX 1138» (1971).
Машина бирюзового цвета, на которой передвигается Невеста, - Volkswagen Type 14 «Karmann-Ghia». Судя по внешнему виду, автомобиль должен был быть произведен около 1970 года бразильским подразделением «Volkswagen».
В первом варианте сценария Невеста не вырывала единственный глаз у Элли Драйвер, а перерезала ей горло.
Ума Турман носит часы Rolex Daytona.
--x264 log
x264 [info]: frame I:1161 Avg QP:16.31 size:244946
x264 [info]: frame P:40829 Avg QP:17.04 size:127253
x264 [info]: frame B:155042 Avg QP:19.80 size: 68161
-
[Профиль] [ЛС]

sergej644

Пол:

Стаж: 4 года 11 месяцев

Сообщений: 6038

Откуда: Soviet Union



Награды: Нет

Торрент-статистика

Создавать темы 19-Авг-2014 14:52 (спустя 21 минута)

[Цитировать]

В своё время хороший был фильм
Спасибо за релиз!!!
[Профиль] [ЛС]
Кто просматривает тему:

Форум Тема Автор Размер
Фильмы 2015 года Как убить свою жену / How to Murder Your Wife (Риккардо Пеллиццери / Riccardo Pellizzeri) [2015, Новая Зеландия, Черная комедия, HDTVRip-AVC] Sub Rus + Original Eng TorrentFilm 704 MB
Разная литература Сергей Зверев | Убить бессмертие (2015) [FB2] достали все 832 KB
Зарубежные сериалы Смертельно скучающий / Убить скуку / Bored to Death / Сезон: 1-3 / Серии: 1-24 из 24 (Майкл Леманн, Адам Бернштейн, Алан Тейлор) [2009-2011, комедия, криминал, детектив, HDRip] MVO (Novamedia) +... Russian Mafia 10.52 GB
Фильмы (DVD 5/9) Убить вечер (Eлeнa Жигaeвa) [2004, Россия, Мелодрама, DVD5] Original Rus TorrentFilm 3.88 GB
Документальные HD Убить гауляйтера. Приказ для троих (2014) HDTV 1080i от Files-х sergej644 1.95 GB
Документальные HD Убить Гауляйтера: Приказ для Троих (Екатерина Китайцева) [2014, Документальный, HDTV 720p] TorrentFilm 1.3 GB
Фильмы (HD Rips | 720p, 1080p) Убить гонца / Kill the Messenger (2014) BDRip 1080р sergej644 11.34 GB
Фильмы (HD Rips | 720p, 1080p) Убить гонца / Kill the Messenger (2014) BDRip 720р | Лицензия Russian Mafia 6.6 GB
Показать сообщения:    

Текущее время: Сегодня 02:16

Часовой пояс: GMT



Вы не можете начинать темы
Вы не можете отвечать на сообщения
Вы не можете редактировать свои сообщения
Вы не можете удалять свои сообщения
Вы не можете голосовать в опросах
Вы не можете прикреплять файлы к сообщениям
Вы не можете скачивать файлы