Убийцы / Killers (2014) BDRip 720p | L2

 
Автор Сообщение

sergej644 ®

Пол:

Стаж: 4 года 11 месяцев

Сообщений: 6042

Откуда: Soviet Union



Награды: Нет

Торрент-статистика

Создавать темы 10-Фев-2015 09:06

[Цитировать]

Информация о фильме
Название: Убийцы
Оригинальное название: Killers
Жанр: Боевик, триллер, драма, криминал
Год выхода: 2014
Режиссер: Кимо Стамбол, Тимо Тьяджанто
В ролях: Ока Антара, Рин Таканаси, Кадзуки Китамура, Луна Майя, Рэй Сахетапи, Эпи Куснандар, Tara Basro, Мей Курокава
О фильме: Журналист-неудачник, оставив тщетные попытки добиться правды, решил добиться справедливости и наказать подлецов, скрывашихс от закона. Однако на своем пути мщения ему придется противостоять не только мафии, но и убийцу-психопату, который за ним следит.

Выпущено: Индонезия, Япония
Продолжительность: 02:17:58
Перевод: Любительский (двухголосый) [DeadSno & den904]
Файл
Формат: MKV
Качество: BDRip 720p
Видео: 1280x544, 5000 Kbit/s
Аудио: Russian/Japanese: AC3, 640 Kb/s (6 ch)
Субтитры: Chinese

MI

Format : Matroska
Format version : Version 4 / Version 2
File size : 6.04 GiB
Duration : 2h 17mn
Overall bit rate : 6 273 Kbps
Movie name : Jubowo @ WiKi
Encoded date : UTC 2014-10-01 15:02:05
Writing application : mkvmerge v6.1.0 ('Old Devil') built on Mar 4 2013 09:10:42
Writing library : libebml v1.3.0 + libmatroska v1.4.0
Video
ID : 1
Format : AVC
Format/Info : Advanced Video Codec
Format profile : High@L4.1
Format settings, CABAC : Yes
Format settings, ReFrames : 12 frames
Codec ID : V_MPEG4/ISO/AVC
Duration : 2h 17mn
Bit rate : 5 000 Kbps
Width : 1 280 pixels
Height : 544 pixels
Display aspect ratio : 2.35:1
Frame rate : 23.976 fps
Color space : YUV
Chroma subsampling : 4:2:0
Bit depth : 8 bits
Scan type : Progressive
Bits/(Pixel*Frame) : 0.299
Stream size : 4.69 GiB (78%)
Writing library : x264 core 129 r2245+704+36 8e61944 tMod+MixAQ [8-bit@4:2:0 X86_64]
Encoding settings : cabac=1 / ref=12 / deblock=1:-3:-3 / analyse=0x3:0x133 / me=umh / subme=11 / psy=1 / fade_compensate=0.00 / psy_rd=1.05:0.10 / mixed_ref=1 / me_range=32 / chroma_me=1 / trellis=2 / 8x8dct=1 / cqm=0 / deadzone=21,11 / fast_pskip=0 / chroma_qp_offset=-3 / threads=18 / lookahead_threads=3 / sliced_threads=0 / nr=0 / decimate=0 / interlaced=0 / bluray_compat=0 / constrained_intra=0 / fgo=0 / bframes=10 / b_pyramid=2 / b_adapt=2 / b_bias=0 / direct=3 / weightb=1 / open_gop=0 / weightp=2 / keyint=250 / keyint_min=23 / scenecut=40 / intra_refresh=0 / rc_lookahead=80 / rc=2pass / mbtree=1 / bitrate=5000 / ratetol=1.0 / qcomp=0.75 / qpmin=0 / qpmax=69 / qpstep=4 / cplxblur=20.0 / qblur=0.5 / ip_ratio=1.40 / aq=3 / aq-strength=0.85 / aq-sensitivity=10.00 / aq-ifactor=1.00 / aq-pfactor=1.00 / aq-bfactor=1.00 / aq2=0
Language : Japanese
Default : Yes
Forced : No
Matrix coefficients : BT.709-5, BT.1361, IEC 61966-2-4 709, SMPTE RP177
Audio #1
ID : 2
Format : AC-3
Format/Info : Audio Coding 3
Mode extension : CM (complete main)
Format settings, Endianness : Big
Codec ID : A_AC3
Duration : 2h 17mn
Bit rate mode : Constant
Bit rate : 640 Kbps
Channel(s) : 6 channels
Channel positions : Front: L C R, Side: L R, LFE
Sampling rate : 48.0 KHz
Bit depth : 16 bits
Compression mode : Lossy
Stream size : 632 MiB (10%)
Language : Russian
Default : Yes
Forced : No
Audio #2
ID : 3
Format : AC-3
Format/Info : Audio Coding 3
Mode extension : CM (complete main)
Format settings, Endianness : Big
Codec ID : A_AC3
Duration : 2h 17mn
Bit rate mode : Constant
Bit rate : 640 Kbps
Channel(s) : 6 channels
Channel positions : Front: L C R, Side: L R, LFE
Sampling rate : 48.0 KHz
Bit depth : 16 bits
Compression mode : Lossy
Stream size : 632 MiB (10%)
Language : Japanese
Default : No
Forced : No
Text #1
ID : 4
Format : ASS
Codec ID : S_TEXT/ASS
Codec ID/Info : Advanced Sub Station Alpha
Compression mode : Lossless
Title : Simplified
Language : Chinese
Default : No
Forced : No
Text #2
ID : 5
Format : ASS
Codec ID : S_TEXT/ASS
Codec ID/Info : Advanced Sub Station Alpha
Compression mode : Lossless
Title : Traditional
Language : Chinese
Default : No
Forced : No
Menu
00:00:00.000 : en:00:00:00.000
00:07:09.929 : en:00:07:09.929
00:20:39.655 : en:00:20:39.655
00:29:59.631 : en:00:29:59.631
00:38:37.523 : en:00:38:37.523
00:50:07.462 : en:00:50:07.462
01:00:59.739 : en:01:00:59.739
01:20:13.600 : en:01:20:13.600
01:32:58.614 : en:01:32:58.614
01:44:42.442 : en:01:44:42.442
01:58:22.929 : en:01:58:22.929
02:13:53.316 : en:02:13:53.316
[Профиль] [ЛС]
Показать сообщения:    

Текущее время: Сегодня 10:32

Часовой пояс: GMT



Вы не можете начинать темы
Вы не можете отвечать на сообщения
Вы не можете редактировать свои сообщения
Вы не можете удалять свои сообщения
Вы не можете голосовать в опросах
Вы не можете прикреплять файлы к сообщениям
Вы не можете скачивать файлы