Убийцы фазана / Fasandaeberne (Миккель Нёргор /Mikkel Nørgaard) [2014, Дания, триллер, криминал, WEB-DLRip] VO (datynet)

 
Автор Сообщение

TorrentFilm ®

Пол:

Стаж: 2 года 3 месяца

Сообщений: 7773



Награды: Нет

Торрент-статистика

Создавать темы 16-Янв-2015 00:00

[Цитировать]

Убийцы фазана / Fasandaeberne
Страна: Дания
Жанр: триллер, криминал
Год выпуска:2014
Продолжительность:01:54:54
Перевод: Одноголосый (закадровый) [datynet]
Оригинальная аудиодорожка: нет
Cубтитры: нет
Режиссер: Миккель Нёргор /Mikkel Nørgaard
В ролях: Николай Ли Каас, Фарес Фарес, Даница Чурчич, Сара-Софи Бусснин, Йоханна Шмидт, Пилу Асбек, Давид Денсик
Описание: В 1994 году двое детей близнецов были найдены зверски убитыми в летнем загородном доме. Ряд фактов указывал на причастность к делу группы молодых студентов, но расследование было прекращено, после того как местный отшельник признал себя виновным в этом инциденте. 20 лет спустя это дело попадает на стол Карлса Мёрка, который начинает подозревать, что в нем что-то не так…


Качество: WEB-DLRip
Контейнер: AVI
Видео: 720x304 (2.37:1), 25 fps, XviD build 50 ~1307 kbps avg, 0.24 bit/pixel
Аудио:48 kHz, AC3 Dolby Digital, 3/2 (L,C,R,l,r) + LFE ch, ~384 kbps

MI

Общее
Полное имя : C:\Users\Пользователь\Downloads\The.Absent.One.2014.L1.WEB-DLRip.avi
Формат : AVI
Формат/Информация : Audio Video Interleave
Размер файла : 1,37 Гбайт
Продолжительность : 1 ч. 54 м.
Общий поток : 1701 Кбит/сек
Программа кодирования : VirtualDubMod 1.5.10.2 (build 2542/release)
Библиотека кодирования : VirtualDubMod build 2542/release
Видео
Идентификатор : 0
Формат : MPEG-4 Visual
Профиль формата : Advanced Simple@L5
Параметр BVOP формата : 2
Параметр QPel формата : Нет
Параметр GMC формата : Без точки перехода
Параметр матрицы формата : Default (MPEG)
Идентификатор кодека : XVID
Идентификатор кодека/Подсказка : XviD
Продолжительность : 1 ч. 54 м.
Битрейт : 1307 Кбит/сек
Ширина : 720 пикселей
Высота : 304 пикселя
Соотношение сторон : 2,35:1
Частота кадров : 25,000 кадров/сек
Цветовое пространство : YUV
Субдискретизация насыщенности : 4:2:0
Битовая глубина : 8 бит
Тип развёртки : Прогрессивная
Метод сжатия : С потерями
Бит/(Пиксели*Кадры) : 0.239
Размер потока : 1,05 Гбайт (77%)
Библиотека кодирования : XviD 1.2.1 (UTC 2008-12-04)
Аудио
Идентификатор : 1
Формат : AC-3
Формат/Информация : Audio Coding 3
Расширение режима : CM (complete main)
Параметр Endianness формата : Big
Идентификатор кодека : 2000
Продолжительность : 1 ч. 54 м.
Вид битрейта : Постоянный
Битрейт : 384 Кбит/сек
Каналы : 6 каналов
Расположение каналов : Front: L C R, Side: L R, LFE
Частота : 48,0 КГц
Битовая глубина : 16 бит
Метод сжатия : С потерями
Размер потока : 316 Мбайт (23%)
Выравнивание : Разделение по промежуткам
Продолжительность промежутка : 40 мс. (1,00 видеокадр)
Время предзагрузки промежутка : 500 мс.

Скриншоты

[Профиль] [ЛС]
Кто просматривает тему:

Форум Тема Автор Размер
Animal Planet Animal Planet. Логово крокодилов-убийц / Lair of the Killer Crocs [2015 г., Документальный, путешествия, природа, HDTV 1080p] boba88 3.11 GB
Action Assassin\'s Creed: Rogue / Кредо Убийцы: Изгой [Repack] [RUS/ENG] (2015) (v.1.1.0 + DLC) TorrentFilm 5.42 GB
Документальные HD BBC. Планета динозавров: Совершенные убийцы / Planet Dinosaur: Ultimate Killers (2012) BDRip-AVC от -=HD-NET=- Белочка 877 MB
BBC BBC: Клеопатра. Портрет убийцы / Cleopatra. Portrait of a Killer (Пол Элстон) [2009 г., Документальный, исследования, археология, реконструкция HDTVRip-AVC 720p] skorpionN 1.78 GB
BBC BBC: Скрытые убийцы в домах послевоенного времени / Hidden Killers of The Post War Home (Suzanne Phillips) [2015 г., Документальный, история, HDTVRip 720p] skorpionN 1.8 GB
Nat Geo Wild Nat Geo Wild: Анаконда: Тихий убийца / Anaconda: Silent Killer (Marion Pullmann) [2014 г., Документальный, природа, флора, фауна, HDTVRip 720p] skorpionN 1.52 GB
Nat Geo Wild Nat Geo Wild: Землеройка-убийца / Killer Shrew (Дженни Апостол) [2014 г., Документальный, природа, HDTVRip 720] skorpionN 1.29 GB
Nat Geo Wild Nat Geo Wild: Маленькие убийцы / Little Killers (Фил Коулз / Phil Coles) [2015 г., Документальный, научно-популярный, HDTVRip-AVC 720p] skorpionN 1.6 GB
Показать сообщения:    

Текущее время: Сегодня 02:35

Часовой пояс: GMT



Вы не можете начинать темы
Вы не можете отвечать на сообщения
Вы не можете редактировать свои сообщения
Вы не можете удалять свои сообщения
Вы не можете голосовать в опросах
Вы не можете прикреплять файлы к сообщениям
Вы не можете скачивать файлы