Убийство по алфавиту / Алфавитный убийца / The Alphabet Killer (Роб Шмидт / Rob Schmidt) [2008, США, триллер, драма, криминал, HDTVRip] DVO

 
Автор Сообщение

TorrentFilm ®

Пол:

Стаж: 2 года

Сообщений: 7741



Награды: Нет

Торрент-статистика

Создавать темы 19-Дек-2014 02:00

[Цитировать]

Убийство по алфавиту / Алфавитный убийца / The Alphabet Killer
Страна: США
Жанр: триллер, драма, криминал
Год выпуска: 2008
Продолжительность: 01:34:05
Перевод: Профессиональный (двухголосый закадровый)
Cубтитры: нет
Режиссер: Роб Шмидт / Rob Schmidt
В ролях: Элиза Душку, Кэри Элвис, Тимоти Хаттон, Том Маллой, Майкл Айронсайд, Билл Моусли, Карл Ламбли, Брайан Сканнелл, Ларри Хэнкин, Джек МакГи
Описание: Фильм о серийном убийце, по мотивам реальных событий в небольших городках штата Нью-Йорк. Неизвестный жестоко расправляется с тремя 11-летними девочками. Он выбирает своих жертв по первым буквам имен – их фамилии и имена начинаются на одинаковые буквы и совпадают в адресами, где живут девочки. Остается найти убийцу.
Доп. информация: За исходник спасибо Romanok8691
Релиз
Сэмпл: https://yadi.sk/i/Li1PXJ5QcigTC
Качество видео: HDTVRip
Формат видео: AVI
Видео: 720x400 (1.80:1), 25 fps, XviD build 50 ~1999 kbps avg, 0.28 bit/pixel
Аудио: 48 kHz, AC3 Dolby Digital, 2/0 (L,R) ch, ~192 kbps

MediaInfo

Убийство по алфавиту - The Alphabet Killer [by Edich2].avi
Format : AVI
Format/Info : Audio Video Interleave
File size : 1.45 GiB
Duration : 1h 34mn
Overall bit rate : 2 202 Kbps
Movie name : Убийство по алфавиту - The Alphabet Killer [by Edich2]
Director : Rip by Edich2
Writing application : VirtualDubMod 1.5.10.3 | www.virtualdub-fr.org || (build 2550/release)
Comment : RuTracker.org
Video
ID : 0
Format : MPEG-4 Visual
Format profile : Advanced Simple@L5
Format settings, BVOP : 2
Format settings, QPel : No
Format settings, GMC : No warppoints
Format settings, Matrix : Custom
Codec ID : XVID
Codec ID/Hint : XviD
Duration : 1h 34mn
Bit rate : 2 000 Kbps
Width : 720 pixels
Height : 400 pixels
Display aspect ratio : 16:9
Frame rate : 25.000 fps
Color space : YUV
Chroma subsampling : 4:2:0
Bit depth : 8 bits
Scan type : Progressive
Compression mode : Lossy
Bits/(Pixel*Frame) : 0.278
Stream size : 1.31 GiB (91%)
Writing library : XviD 1.2.1 (UTC 2008-12-04)
Audio
ID : 1
Format : AC-3
Format/Info : Audio Coding 3
Mode extension : CM (complete main)
Format settings, Endianness : Big
Codec ID : 2000
Duration : 1h 34mn
Bit rate mode : Constant
Bit rate : 192 Kbps
Channel(s) : 2 channels
Channel positions : Front: L R
Sampling rate : 48.0 KHz
Bit depth : 16 bits
Compression mode : Lossy
Stream size : 129 MiB (9%)
Alignment : Split accross interleaves
Interleave, duration : 40 ms (1.00 video frame)
Interleave, preload duration : 500 ms

Скриншоты


[Профиль] [ЛС]

Создавать темы 06-Авг-2015 22:54 (спустя 7 месяцев 18 дней)

Топик был перенесен из форума Фильмы до 2014 года в форум Фильмы до 2012 года
sergej644
 

Создавать темы 12-Июн-2016 08:51 (спустя 1 год 5 месяцев)

Топик был перенесен из форума Фильмы 2011 года в форум Фильмы 2006-2008 года
Russian Mafia
 
Кто просматривает тему:

Форум Тема Автор Размер
Фильмы (HD Rips | 720p, 1080p) 3 дня на убийство / 3 Days to Kill (2014) BDRip 1080p sergej644 7.76 GB
Фильмы (HD Rips | 720p, 1080p) 3 дня на убийство / 3 Days to Kill (2014) BDRip 1080p от New-Team | D | лицензия sergej644 8.46 GB
Фильмы 2014 года 3 дня на убийство / 3 Days to Kill (МакДжи / McG) [2014 г., США, Франция, Греция, Россия, боевик, криминал, триллер, драма, комедия, HDRip-AVC] [Театральная версия / Theatrical Cut] Dub + Original... bot 1.46 GB
Фильмы 2014 года 3 дня на убийство / 3 Days to Kill (МакДжи / McG) [2014 г., США, Франция, Греция, Россия, боевик, криминал, триллер, драма, комедия, HDRip] [Театральная версия / Theatrical Cut] Dub bot 750 MB
Фильмы 2014 года 3 дня на убийство / 3 Days to Kill (МакДжи / McG) [2014, США, Боевик, криминал, триллер, драма, комедия, BDRip] [Театральная версия / Theatrical Cut] Dub bot 1.46 GB
Фильмы 2014 года 3 дня на убийство / 3 Days to Kill (МакДжи / McG) [2014, США, Франция, Греция, Россия, Боевик, криминал, триллер, драма, комедия, BDRip-AVC] Dub (iTunes) bot 744 MB
Фильмы 2014 года 3 дня на убийство / 3 Days to Kill (МакДжи / McG) [2014, США, Франция, Греция, Россия, Боевик, триллер, драма, криминал, комедия, BDRip] [Extended Cut] Dub + sub bot 2.18 GB
Фильмы 2014 года 3 дня на убийство / 3 Days to Kill (МакДжи / McG) [2014, США, Франция, Греция, Россия, Боевик, триллер, драма, криминал, комедия, BDRip] [Театральная версия / Theatrical Cut] [US] Dub + Original +... bot 2.18 GB
Показать сообщения:    

Текущее время: Сегодня 03:06

Часовой пояс: GMT



Вы не можете начинать темы
Вы не можете отвечать на сообщения
Вы не можете редактировать свои сообщения
Вы не можете удалять свои сообщения
Вы не можете голосовать в опросах
Вы не можете прикреплять файлы к сообщениям
Вы не можете скачивать файлы