Убийственная вечеринка / Murder Party (Джереми Солнье / Jeremy Saulnier) [2007, США, ужасы, триллер, драма, комедия, DVDRip] MVO (ТВ3) + DVO + Original Eng

 
Автор Сообщение

painkiller ®

Стаж: 2 года 3 месяца

Сообщений: 582



Награды: Нет

Торрент-статистика

Создавать темы 14-Авг-2014 09:12

[Цитировать]

Убийственная вечеринка / Murder Party
Страна: США
Жанр: ужасы, триллер, драма, комедия
Год выпуска: 2007
Продолжительность: 01:19:38
Перевод 1: Профессиональный (многоголосый закадровый) с ТВ3
Перевод 2: Профессиональный (двухголосый закадровый)
Cубтитры: нет
Оригинальная аудиодорожка: английский
Режиссер: Джереми Солнье /Jeremy Saulnier
В ролях: Крис Шарп, Кейт Портефилд, Тесс Портефилд Ловелл, Дэймон Линдсэй, Макон Блэр, Стэйси Рок, Секй Солнье, Пол Голдблатт, Уильям Лэйси, Алекс Барнетт, Билл Тангради, Бо Сиа, Малин Бергман
Описание: Случайное приглашение на вечеринку в честь Хеллоуина приводит героя в жестокое сообщество одержимое одной целью — убить его во имя их искусства, так разжигается кровавая баня из пыток, увечий и веселья.
Сэмпл: http://multi-up.com/975740
Качество видео: DVDRip
Формат видео: AVI
Видео: 704x400 (1.76:1), 23.976 fps, XviD, 1168 kbps, 0.17 bit/pixel
Аудио 1: 48 kHz, MPEG Layer 3, 2 ch, 128.00 kbps, МVO
Аудио 2: 48 kHz, MPEG Layer 3, 2 ch, 128.00 kbps, DVO - Отдельно.
Аудио 3: 48 kHz, MPEG Layer 3, 2 ch, 128.00 kbps, Original (Eng) - Отдельно.

MediaInfo

General
Complete name : E:\Раздачи\12\Ubijstvennaja_vecherinka_745_by_max1wq\Ubijstvennaja_vecherinka_745_by_max1wq.avi
Format : AVI
Format/Info : Audio Video Interleave
File size : 744 MiB
Duration : 1h 19mn
Overall bit rate : 1 306 Kbps
Writing application : VirtualDubMod 1.5.10.2 (build 2540/release)
Writing library : VirtualDubMod build 2540/release
Video
ID : 0
Format : MPEG-4 Visual
Format profile : Advanced Simple@L5
Format settings, BVOP : 2
Format settings, QPel : No
Format settings, GMC : No warppoints
Format settings, Matrix : Custom
Codec ID : XVID
Codec ID/Hint : XviD
Duration : 1h 19mn
Bit rate : 1 169 Kbps
Width : 704 pixels
Height : 400 pixels
Display aspect ratio : 16:9
Frame rate : 23.976 fps
Color space : YUV
Chroma subsampling : 4:2:0
Bit depth : 8 bits
Scan type : Progressive
Compression mode : Lossy
Bits/(Pixel*Frame) : 0.173
Stream size : 666 MiB (89%)
Writing library : XviD 65
Audio
ID : 1
Format : MPEG Audio
Format version : Version 1
Format profile : Layer 3
Mode : Joint stereo
Mode extension : MS Stereo
Codec ID : 55
Codec ID/Hint : MP3
Duration : 1h 19mn
Bit rate mode : Constant
Bit rate : 128 Kbps
Channel(s) : 2 channels
Sampling rate : 48.0 KHz
Compression mode : Lossy
Stream size : 72.9 MiB (10%)
Alignment : Aligned on interleaves
Interleave, duration : 42 ms (1.00 video frame)
Interleave, preload duration : 504 ms
General
Complete name : E:\Раздачи\12\Ubijstvennaja_vecherinka_745_by_max1wq\Ubijstvennaja_vecherinka_745_by_max1wq_dvo.mp3
Format : MPEG Audio
File size : 72.9 MiB
Duration : 1h 19mn
Overall bit rate mode : Constant
Overall bit rate : 128 Kbps
Genre : Other
Audio
Format : MPEG Audio
Format version : Version 1
Format profile : Layer 3
Mode : Joint stereo
Mode extension : MS Stereo
Duration : 1h 19mn
Bit rate mode : Constant
Bit rate : 128 Kbps
Channel(s) : 2 channels
Sampling rate : 48.0 KHz
Compression mode : Lossy
Stream size : 72.9 MiB (100%)
General
Complete name : E:\Раздачи\12\Ubijstvennaja_vecherinka_745_by_max1wq\Ubijstvennaja_vecherinka_745_by_max1wq_eng.mp3
Format : MPEG Audio
File size : 72.9 MiB
Duration : 1h 19mn
Overall bit rate mode : Constant
Overall bit rate : 128 Kbps
Genre : Other
Audio
Format : MPEG Audio
Format version : Version 1
Format profile : Layer 3
Duration : 1h 19mn
Bit rate mode : Constant
Bit rate : 128 Kbps
Channel(s) : 2 channels
Sampling rate : 48.0 KHz
Compression mode : Lossy
Stream size : 72.9 MiB (100%)
--
[Профиль] [ЛС]

Создавать темы 06-Авг-2015 23:15 (спустя 11 месяцев 23 дня)

Топик был перенесен из форума Фильмы до 2014 года в форум Фильмы до 2012 года
sergej644
 
Кто просматривает тему:

Форум Тема Автор Размер
Фильмы (HD Rips | 720p, 1080p) 3 дня на убийство / 3 Days to Kill (2014) BDRip 1080p sergej644 7.76 GB
Фильмы (HD Rips | 720p, 1080p) 3 дня на убийство / 3 Days to Kill (2014) BDRip 1080p от New-Team | D | лицензия sergej644 8.46 GB
Фильмы 2014 года 3 дня на убийство / 3 Days to Kill (МакДжи / McG) [2014 г., США, Франция, Греция, Россия, боевик, криминал, триллер, драма, комедия, HDRip-AVC] [Театральная версия / Theatrical Cut] Dub + Original... bot 1.46 GB
Фильмы 2014 года 3 дня на убийство / 3 Days to Kill (МакДжи / McG) [2014 г., США, Франция, Греция, Россия, боевик, криминал, триллер, драма, комедия, HDRip] [Театральная версия / Theatrical Cut] Dub bot 750 MB
Фильмы 2014 года 3 дня на убийство / 3 Days to Kill (МакДжи / McG) [2014, США, Боевик, криминал, триллер, драма, комедия, BDRip] [Театральная версия / Theatrical Cut] Dub bot 1.46 GB
Фильмы 2014 года 3 дня на убийство / 3 Days to Kill (МакДжи / McG) [2014, США, Франция, Греция, Россия, Боевик, криминал, триллер, драма, комедия, BDRip-AVC] Dub (iTunes) bot 744 MB
Фильмы 2014 года 3 дня на убийство / 3 Days to Kill (МакДжи / McG) [2014, США, Франция, Греция, Россия, Боевик, триллер, драма, криминал, комедия, BDRip] [Extended Cut] Dub + sub bot 2.18 GB
Фильмы 2014 года 3 дня на убийство / 3 Days to Kill (МакДжи / McG) [2014, США, Франция, Греция, Россия, Боевик, триллер, драма, криминал, комедия, BDRip] [Театральная версия / Theatrical Cut] [US] Dub + Original +... bot 2.18 GB
Показать сообщения:    

Текущее время: Сегодня 18:16

Часовой пояс: GMT



Вы не можете начинать темы
Вы не можете отвечать на сообщения
Вы не можете редактировать свои сообщения
Вы не можете удалять свои сообщения
Вы не можете голосовать в опросах
Вы не можете прикреплять файлы к сообщениям
Вы не можете скачивать файлы