Убийства - мой конёк, дорогая / Mord ist mein Geschäft, Liebling (2009) BDRip 1080p by msltel | P2

 
Автор Сообщение

sergej644 ®

Пол:

Стаж: 4 года 11 месяцев

Сообщений: 6036

Откуда: Soviet Union



Награды: Нет

Торрент-статистика

Создавать темы 02-Мар-2015 17:23

[Цитировать]

Год выпуска: 2009
Страна: Германия
Жанр: комедия, мелодрама, криминал
Продолжительность: 01:48:47
Перевод: профессиональный двухголосый
Субтитры: русские, английские
Режиссёр: Себастьян Нимэнн
В ролях: Рик Каваниан, Нора Чирнер, Кристиан Трамиц, Янек Рике, Ганс-Майкл Реберг, Маттиас Целик, Вольф Рот, Франко Неро, Гюнтер Кауфманн, Вольфганг Вёльц, Людгер Пистор, Дорис Кунстманн, Бад Спенсер, Оскар О. Санчез, Чи Ле, Ник Донг-Сик, Джасмин Швирс, Флорентина Ламе, Аксель Штайн, Гельмут Рюль, Клаудио Кайоло, Лара-Изабель Рентинк, Мирослав Навратил, Зденек Дворачек, Джеймс Батлер, Бернд Хоффманн, Георг Альфред Уитнер, Матиас Мюссе
Описание: Тони Рикарделли в целом доволен своей работой — он киллер. А это значит — хорошая зарплата, гибкий график и общение с новыми людьми. Для полного счастья ему не хватает одного — жениться. При выполнении очередного заказа он знакомится с Юлией, и чтобы быть к ней ближе, он вынужден выдавать себя за убитого им мистера Пуцо...

Качество: BDRip 1080p
Формат: MKV
Видео кодек: H.264
Аудио кодек: AC3
Видео: 14 Mбит/с, 1920x816, 23.976 кадра/с, 0.374 bpp
Аудио 1: русский, AC3, 192 kbps, 2 ch, 48 kHz [профессиональный двухголосый, Red Media]
Аудио 2: немецкий, AC3, 448 kbps, 6 ch, 48 kHz [оригинал]
Имеются неименованные главы/чаптеры.

Кванты и MediaInfo

frame I:1612 Avg QP:17.54 size:209718
frame P:32726 Avg QP:18.22 size:113615
frame B:122162 Avg QP:20.42 size: 62523
Общее
Уникальный идентификатор : 236150382509328259683299970987403912351 (0xB1A8E8C83BC9F14885BE7E3CF6CE249F)
Полное имя : D:VideoUbijstva-moj konek,dorogaja.2009.BDRip.1080p.mkv
Формат : Matroska
Версия формата : Version 4 / Version 2
Размер файла : 11,4 Гбайт
Продолжительность : 1 ч. 48 м.
Общий поток : 15,0 Мбит/сек
Дата кодирования : UTC 2015-03-02 04:17:33
Программа кодирования : mkvmerge v7.6.0 ('Garden of Dreams') 64bit built on Feb 8 2015 13:04:34
Библиотека кодирования : libebml v1.3.1 + libmatroska v1.4.2
_STATISTICS_WRITING_APP : mkvmerge v7.6.0 ('Garden of Dreams') 64bit built on Feb 8 2015 13:04:34
_STATISTICS_WRITING_DATE_UTC : 2015-03-02 04:17:33
_STATISTICS_TAGS : BPS DURATION NUMBER_OF_FRAMES NUMBER_OF_BYTES
DURATION : 01:42:26.723000000
NUMBER_OF_FRAMES : 1258
NUMBER_OF_BYTES : 40764
Видео
Идентификатор : 1
Формат : AVC
Формат/Информация : Advanced Video Codec
Профиль формата : High@L4.1
Параметр CABAC формата : Да
Параметр ReFrames формата : 4 кадра
Идентификатор кодека : V_MPEG4/ISO/AVC
Продолжительность : 1 ч. 48 м.
Битрейт : 14,0 Мбит/сек
Ширина : 1920 пикселей
Высота : 816 пикселей
Соотношение сторон : 2,35:1
Режим частоты кадров : Постоянный
Частота кадров : 23,976 кадра/сек
Цветовое пространство : YUV
Субдискретизация насыщенности : 4:2:0
Битовая глубина : 8 бит
Тип развёртки : Прогрессивная
Бит/(Пиксели*Кадры) : 0.374
Размер потока : 10,7 Гбайт (94%)
Заголовок : BDRip -- STarankov
Библиотека кодирования : x264 core 142 r2431 ac76440
Настройки программы : cabac=1 / ref=4 / deblock=1:-2:-2 / analyse=0x3:0x113 / me=umh / subme=9 / psy=1 / psy_rd=1.00:0.15 / mixed_ref=1 / me_range=32 / chroma_me=1 / trellis=2 / 8x8dct=1 / cqm=0 / deadzone=21,11 / fast_pskip=1 / chroma_qp_offset=-3 / threads=6 / lookahead_threads=1 / sliced_threads=0 / nr=0 / decimate=1 / interlaced=0 / bluray_compat=0 / constrained_intra=0 / bframes=8 / b_pyramid=2 / b_adapt=2 / b_bias=0 / direct=3 / weightb=1 / open_gop=0 / weightp=2 / keyint=230 / keyint_min=23 / scenecut=40 / intra_refresh=0 / rc_lookahead=40 / rc=crf / mbtree=0 / crf=19.2 / qcomp=0.60 / qpmin=0 / qpmax=69 / qpstep=4 / vbv_maxrate=50000 / vbv_bufsize=62500 / crf_max=0.0 / nal_hrd=none / filler=0 / ip_ratio=1.40 / pb_ratio=1.30 / aq=1:1.00
Язык : German
Default : Да
Forced : Нет
DURATION : 01:48:47.354000000
NUMBER_OF_FRAMES : 156500
NUMBER_OF_BYTES : 11694145702
_STATISTICS_WRITING_APP : mkvmerge v7.6.0 ('Garden of Dreams') 64bit built on Feb 8 2015 13:04:34
_STATISTICS_WRITING_DATE_UTC : 2015-03-02 04:17:33
_STATISTICS_TAGS : BPS DURATION NUMBER_OF_FRAMES NUMBER_OF_BYTES
Аудио #1
Идентификатор : 2
Формат : AC-3
Формат/Информация : Audio Coding 3
Расширение режима : CM (complete main)
Параметр Endianness формата : Big
Идентификатор кодека : A_AC3
Продолжительность : 1 ч. 48 м.
Вид битрейта : Постоянный
Битрейт : 192 Кбит/сек
Каналы : 2 канала
Расположение каналов : Front: L R
Частота : 48,0 КГц
Битовая глубина : 16 бит
Метод сжатия : С потерями
Размер потока : 149 Мбайт (1%)
Заголовок : DVO (Red Media)
Язык : Russian
Default : Да
Forced : Нет
Аудио #2
Идентификатор : 3
Формат : AC-3
Формат/Информация : Audio Coding 3
Расширение режима : CM (complete main)
Параметр Endianness формата : Big
Идентификатор кодека : A_AC3
Продолжительность : 1 ч. 48 м.
Вид битрейта : Постоянный
Битрейт : 448 Кбит/сек
Каналы : 6 каналов
Расположение каналов : Front: L C R, Side: L R, LFE
Частота : 48,0 КГц
Битовая глубина : 16 бит
Метод сжатия : С потерями
Размер потока : 349 Мбайт (3%)
Заголовок : Original
Язык : German
Default : Нет
Forced : Нет
Текст #1
Идентификатор : 4
Формат : UTF-8
Идентификатор кодека : S_TEXT/UTF8
Идентификатор кодека/Информация : UTF-8 Plain Text
Заголовок : русский
Язык : Russian
Default : Нет
Forced : Нет
Текст #2
Идентификатор : 5
Формат : UTF-8
Идентификатор кодека : S_TEXT/UTF8
Идентификатор кодека/Информация : UTF-8 Plain Text
Заголовок : английский
Язык : English
Default : Нет
Forced : Нет
Меню
00:00:00.000 : :Chapter 01
00:09:07.171 : :Chapter 02
00:20:04.328 : :Chapter 03
00:31:08.241 : :Chapter 04
00:36:31.981 : :Chapter 05
00:44:41.969 : :Chapter 06
00:57:10.385 : :Chapter 07
01:08:08.459 : :Chapter 08
01:13:19.103 : :Chapter 09
01:24:59.385 : :Chapter 10
01:38:28.527 : :Chapter 11
01:42:29.226 : :Chapter 12
01:48:46.811 : :Chapter 13

Скриншоты

[Профиль] [ЛС]
Кто просматривает тему:

Форум Тема Автор Размер
Фильмы (HD Rips | 720p, 1080p) 3 дня на убийство / 3 Days to Kill (2014) BDRip 1080p sergej644 7.76 GB
Фильмы (HD Rips | 720p, 1080p) 3 дня на убийство / 3 Days to Kill (2014) BDRip 1080p от New-Team | D | лицензия sergej644 8.46 GB
Фильмы 2014 года 3 дня на убийство / 3 Days to Kill (МакДжи / McG) [2014 г., США, Франция, Греция, Россия, боевик, криминал, триллер, драма, комедия, HDRip-AVC] [Театральная версия / Theatrical Cut] Dub + Original... bot 1.46 GB
Фильмы 2014 года 3 дня на убийство / 3 Days to Kill (МакДжи / McG) [2014 г., США, Франция, Греция, Россия, боевик, криминал, триллер, драма, комедия, HDRip] [Театральная версия / Theatrical Cut] Dub bot 750 MB
Фильмы 2014 года 3 дня на убийство / 3 Days to Kill (МакДжи / McG) [2014, США, Боевик, криминал, триллер, драма, комедия, BDRip] [Театральная версия / Theatrical Cut] Dub bot 1.46 GB
Фильмы 2014 года 3 дня на убийство / 3 Days to Kill (МакДжи / McG) [2014, США, Франция, Греция, Россия, Боевик, криминал, триллер, драма, комедия, BDRip-AVC] Dub (iTunes) bot 744 MB
Фильмы 2014 года 3 дня на убийство / 3 Days to Kill (МакДжи / McG) [2014, США, Франция, Греция, Россия, Боевик, триллер, драма, криминал, комедия, BDRip] [Extended Cut] Dub + sub bot 2.18 GB
Фильмы 2014 года 3 дня на убийство / 3 Days to Kill (МакДжи / McG) [2014, США, Франция, Греция, Россия, Боевик, триллер, драма, криминал, комедия, BDRip] [Театральная версия / Theatrical Cut] [US] Dub + Original +... bot 2.18 GB
Показать сообщения:    

Текущее время: Сегодня 14:01

Часовой пояс: GMT



Вы не можете начинать темы
Вы не можете отвечать на сообщения
Вы не можете редактировать свои сообщения
Вы не можете удалять свои сообщения
Вы не можете голосовать в опросах
Вы не можете прикреплять файлы к сообщениям
Вы не можете скачивать файлы