Убей своих любимых / Kill Your Darlings (2013) BDRip 720p | P

 
Автор Сообщение

sergej644 ®

Пол:

Стаж: 4 года 11 месяцев

Сообщений: 6040

Откуда: Soviet Union



Награды: Нет

Торрент-статистика

Создавать темы 11-Фев-2015 12:18

[Цитировать]

Информация о фильме
Название: Убей своих любимых
Оригинальное название: Kill Your Darlings
Год выхода: 2013
Жанр: Драма
Режиссер: Джон Крокидас / John Krokidas
В ролях: Дэниэл Рэдклифф, Дэйн ДеХаан, Бен Фостер, Майкл С. Холл, Джек Хьюстон, Дженнифер Джейсон Ли, Элизабет Олсен, Дэвид Кросс, Джон Каллам
О фильме:
Фильм повествует о годах молодости американских писателей-битников ХХ века Аллена Гинзберга и Джека Керуака...
Страна: США
Продолжительность: 01:42:44
Перевод: Профессиональный (многоголосый закадровый) R5
Файл
Кодек: MKV
Качество: BDRip 720p
Видео: MPEG-4 AVC, 5000 Кбит/с, 1280x534, 23,976 fps
Звук:
Rus, AC3, 448 kb/s (6 ch), 48 kHz
Eng, DTS, 1510 kb/s (6 ch), 48 kHz
Субтитры: Rus, Eng
Семпл

MediaInfo

Format : Matroska
Format version : Version 4 / Version 2
File size : 6.03 GiB
Duration : 1h 42mn
Overall bit rate : 8 409 Kbps
Encoded date : UTC 2014-10-28 15:53:56
Writing application : mkvmerge v7.1.0 ('Good Love') 64bit built on Jul 27 2014 13:06:55
Writing library : libebml v1.3.0 + libmatroska v1.4.1
DURATION : 01:42:44.096000000
NUMBER_OF_FRAMES : 192628
NUMBER_OF_BYTES : 345189376
_STATISTICS_WRITING_APP : mkvmerge v7.1.0 ('Good Love') 64bit built on Jul 27 2014 13:06:55
_STATISTICS_WRITING_DATE_UTC : 2014-10-28 15:53:56
_STATISTICS_TAGS : BPS DURATION NUMBER_OF_FRAMES NUMBER_OF_BYTES
Video #1
ID : 1
Format : AVC
Format/Info : Advanced Video Codec
Format profile : High@L4.1
Format settings, CABAC : Yes
Format settings, ReFrames : 12 frames
Codec ID : V_MPEG4/ISO/AVC
Duration : 1h 42mn
Nominal bit rate : 5 000 Kbps
Width : 1 280 pixels
Height : 534 pixels
Display aspect ratio : 2.40:1
Frame rate mode : Constant
Frame rate : 23.976 fps
Color space : YUV
Chroma subsampling : 4:2:0
Bit depth : 8 bits
Scan type : Progressive
Bits/(Pixel*Frame) : 0.305
Writing library : x264 core 138 r2358 9e941d1
Encoding settings : cabac=1 / ref=12 / deblock=1:-3:-3 / analyse=0x3:0x113 / me=umh / subme=11 / psy=1 / psy_rd=1.00:0.10 / mixed_ref=1 / me_range=48 / chroma_me=1 / trellis=2 / 8x8dct=1 / cqm=0 / deadzone=21,11 / fast_pskip=0 / chroma_qp_offset=-3 / threads=48 / lookahead_threads=4 / sliced_threads=0 / nr=0 / decimate=0 / interlaced=0 / bluray_compat=0 / constrained_intra=0 / bframes=8 / b_pyramid=2 / b_adapt=2 / b_bias=0 / direct=3 / weightb=1 / open_gop=0 / weightp=2 / keyint=360 / keyint_min=2 / scenecut=40 / intra_refresh=0 / rc_lookahead=60 / rc=2pass / mbtree=1 / bitrate=5000 / ratetol=1.0 / qcomp=0.70 / qpmin=0 / qpmax=69 / qpstep=4 / cplxblur=20.0 / qblur=0.5 / vbv_maxrate=50000 / vbv_bufsize=30000 / nal_hrd=none / ip_ratio=1.10 / aq=1:0.80
Default : Yes
Forced : No
DURATION : 01:42:44.117000000
NUMBER_OF_FRAMES : 147791
NUMBER_OF_BYTES : 3852656516
_STATISTICS_WRITING_APP : mkvmerge v7.1.0 ('Good Love') 64bit built on Jul 27 2014 13:06:55
_STATISTICS_WRITING_DATE_UTC : 2014-10-28 15:53:56
_STATISTICS_TAGS : BPS DURATION NUMBER_OF_FRAMES NUMBER_OF_BYTES
Video #2
ID : 6
Format : MPEG-4 Visual
Format profile : Advanced Simple@L5
Format settings, BVOP : Yes
Format settings, QPel : No
Format settings, GMC : No warppoints
Format settings, Matrix : Custom
Codec ID : V_MS/VFW/FOURCC / XVID
Codec ID/Hint : XviD
Duration : 1h 42mn
Width : 720 pixels
Height : 304 pixels
Display aspect ratio : 2.35:1
Frame rate mode : Constant
Frame rate : 23.976 fps
Color space : YUV
Chroma subsampling : 4:2:0
Bit depth : 8 bits
Scan type : Progressive
Compression mode : Lossy
Writing library : XviD 1.2.1 (UTC 2008-12-04)
Default : No
Forced : No
Audio #1
ID : 2
Format : AC-3
Format/Info : Audio Coding 3
Mode extension : CM (complete main)
Format settings, Endianness : Big
Codec ID : A_AC3
Duration : 1h 42mn
Bit rate mode : Constant
Bit rate : 448 Kbps
Channel(s) : 6 channels
Channel positions : Front: L C R, Side: L R, LFE
Sampling rate : 48.0 KHz
Bit depth : 16 bits
Compression mode : Lossy
Stream size : 329 MiB (5%)
Language : Russian
Default : Yes
Forced : No
Audio #2
ID : 3
Format : DTS
Format/Info : Digital Theater Systems
Mode : 16
Format settings, Endianness : Big
Codec ID : A_DTS
Duration : 1h 42mn
Bit rate mode : Constant
Bit rate : 1 509 Kbps
Channel(s) : 6 channels
Channel positions : Front: L C R, Side: L R, LFE
Sampling rate : 48.0 KHz
Bit depth : 24 bits
Compression mode : Lossy
Stream size : 1.08 GiB (18%)
Language : English
Default : No
Forced : No
Text #1
ID : 4
Format : UTF-8
Codec ID : S_TEXT/UTF8
Codec ID/Info : UTF-8 Plain Text
Language : Russian
Default : No
Forced : No
Text #2
ID : 5
Format : UTF-8
Codec ID : S_TEXT/UTF8
Codec ID/Info : UTF-8 Plain Text
Language : English
Default : No
Forced : No
Menu
00:00:00.000 : en:00:00:00.000
00:05:39.339 : en:00:05:39.339
00:09:11.926 : en:00:09:11.926
00:13:45.992 : en:00:13:45.992
00:23:31.118 : en:00:23:31.118
00:28:50.354 : en:00:28:50.354
00:36:31.272 : en:00:36:31.272
00:42:13.781 : en:00:42:13.781
00:45:57.838 : en:00:45:57.838
00:54:10.622 : en:00:54:10.622
00:57:41.583 : en:00:57:41.583
01:03:23.508 : en:01:03:23.508
01:08:16.509 : en:01:08:16.509
01:12:17.583 : en:01:12:17.583
01:20:11.807 : en:01:20:11.807
01:28:02.319 : en:01:28:02.319

Скриншоты

[Профиль] [ЛС]
Кто просматривает тему:

Показать сообщения:    

Текущее время: Сегодня 04:46

Часовой пояс: GMT



Вы не можете начинать темы
Вы не можете отвечать на сообщения
Вы не можете редактировать свои сообщения
Вы не можете удалять свои сообщения
Вы не можете голосовать в опросах
Вы не можете прикреплять файлы к сообщениям
Вы не можете скачивать файлы