Убей своих друзей / Kill Your Friends (2015) BDRip 720p | L2

 
Автор Сообщение

достали все ®

Пол:

Стаж: 1 год 8 месяцев

Сообщений: 6545



Награды: 12 (Подробнее)

Mega Seeder 2 (Количество: 1) Mega Seeder 3 (Количество: 1) Mega Seeder 5 (Количество: 1)
Торрент-статистика

Создавать темы 08-Апр-2016 21:40

[Цитировать]

Информация о фильме
Название: Убей своих друзей
Оригинальное название: Kill Your Friends
Год выхода: 2015
Жанр: триллер, комедия, криминал
Режиссер: Оуэн Харрис
В ролях: Николас Холт, Джеймс Корден, Джорджия Кинг, Крэйг Робертс, Джим Пиддок, Джозеф Моул, Дастин Демри-Бёрнс, Дэмиен Молони, Бронсон Уэбб, Элла Смит
О фильме: Знакомьтесь, Стивен Стелфокс — менеджер по поиску талантов в звукозаписывающей студии. Наполненный жадностью и тщеславием, Стелфокс весело колесит по всему земному шару в поисках молодых талантов. Но как только хиты заканчиваются и индустрия начинает меняться, Стелфоксу ничего больше не остается, как сыграть по правилам жестокого бизнеса, чтобы добраться к вершинам и спасти свою карьеру…

Выпущено: Великобритания / AI-Film, Altitude Film Entertainment, Unigram
Продолжительность: 01:43:29
Озвучивание: Любительское (двухголосое) [den904 & DeadSno]
Примечание: Релиз без рекламы.
Файл
Формат: MKV
Качество: BDRip 720p
Видео: MPEG-4 AVC, 4531 kb/s, 1280x536
Аудио: Russian: AC3, 192 kb/s (2 ch) / English: DTS, 1509 kb/s (6 ch)

MI

Format : Matroska
Format version : Version 2
File size : 4.51 GiB
Duration : 1h 43mn
Overall bit rate : 6 233 Kbps
Encoded date : UTC 2016-04-08 21:02:37
Writing application : mkvmerge v7.8.0 ('River Man') 32bit built on Apr 3 2015 12:11:22
Writing library : libebml v1.3.1 + libmatroska v1.4.2
Video
ID : 1
Format : AVC
Format/Info : Advanced Video Codec
Format profile : High@L4.1
Format settings, CABAC : Yes
Format settings, ReFrames : 5 frames
Codec ID : V_MPEG4/ISO/AVC
Duration : 1h 43mn
Bit rate : 4 531 Kbps
Width : 1 280 pixels
Height : 536 pixels
Display aspect ratio : 2.40:1
Frame rate mode : Constant
Frame rate : 24.000 fps
Color space : YUV
Chroma subsampling : 4:2:0
Bit depth : 8 bits
Scan type : Progressive
Bits/(Pixel*Frame) : 0.275
Stream size : 3.19 GiB (71%)
Writing library : x264 core 148 r2665 a01e339
Encoding settings : cabac=1 / ref=5 / deblock=1:-1:-1 / analyse=0x3:0x133 / me=umh / subme=8 / psy=1 / psy_rd=1.00:0.15 / mixed_ref=1 / me_range=16 / chroma_me=1 / trellis=1 / 8x8dct=1 / cqm=0 / deadzone=21,11 / fast_pskip=0 / chroma_qp_offset=-4 / threads=17 / lookahead_threads=2 / sliced_threads=0 / nr=0 / decimate=1 / interlaced=0 / bluray_compat=0 / constrained_intra=0 / bframes=3 / b_pyramid=2 / b_adapt=2 / b_bias=0 / direct=3 / weightb=1 / open_gop=0 / weightp=2 / keyint=240 / keyint_min=23 / scenecut=40 / intra_refresh=0 / rc_lookahead=50 / rc=2pass / mbtree=1 / bitrate=4531 / ratetol=1.0 / qcomp=0.60 / qpmin=10 / qpmax=69 / qpstep=4 / cplxblur=20.0 / qblur=0.5 / ip_ratio=1.40 / aq=1:1.00
Language : English
Default : Yes
Forced : No
Audio #1
ID : 2
Format : AC-3
Format/Info : Audio Coding 3
Mode extension : CM (complete main)
Format settings, Endianness : Big
Codec ID : A_AC3
Duration : 1h 43mn
Bit rate mode : Constant
Bit rate : 192 Kbps
Channel(s) : 2 channels
Channel positions : Front: L R
Sampling rate : 48.0 KHz
Bit depth : 16 bits
Compression mode : Lossy
Stream size : 142 MiB (3%)
Language : Russian
Default : Yes
Forced : No
Audio #2
ID : 3
Format : DTS
Format/Info : Digital Theater Systems
Mode : 16
Format settings, Endianness : Big
Codec ID : A_DTS
Duration : 1h 43mn
Bit rate mode : Constant
Bit rate : 1 509 Kbps
Channel(s) : 6 channels
Channel positions : Front: L C R, Side: L R, LFE
Sampling rate : 48.0 KHz
Bit depth : 24 bits
Compression mode : Lossy
Stream size : 1.09 GiB (24%)
Language : English
Default : No
Forced : No
Menu
00:00:00.000 : en:00:00:00.000
00:10:03.667 : en:00:10:03.667
00:19:33.667 : en:00:19:33.667
00:26:08.375 : en:00:26:08.375
00:34:31.125 : en:00:34:31.125
00:40:45.250 : en:00:40:45.250
00:50:45.458 : en:00:50:45.458
00:59:19.917 : en:00:59:19.917
01:07:56.708 : en:01:07:56.708
01:18:05.458 : en:01:18:05.458
01:27:24.792 : en:01:27:24.792
01:36:37.583 : en:01:36:37.583

Скриншоты




[Профиль] [ЛС]
Кто просматривает тему:

Показать сообщения:    

Текущее время: Сегодня 12:34

Часовой пояс: GMT



Вы не можете начинать темы
Вы не можете отвечать на сообщения
Вы не можете редактировать свои сообщения
Вы не можете удалять свои сообщения
Вы не можете голосовать в опросах
Вы не можете прикреплять файлы к сообщениям
Вы не можете скачивать файлы