Убей меня три раза / Kill Me Three Times (2014) BDRip 720p | P

 
Автор Сообщение

достали все ®

Пол:

Стаж: 1 год 8 месяцев

Сообщений: 6571



Награды: 12 (Подробнее)

За внесенный вклад в развитие сайта (Количество: 1) Mega Seeder 2 (Количество: 1) Mega Seeder 1 (Количество: 1)
Торрент-статистика

Создавать темы 06-Окт-2015 12:42

[Цитировать]

Информация о фильме
Название: Убей меня три раза
Оригинальное название: Kill Me Three Times
Страна: США, Австралия
Студия: Cargo Entertainment, Feisty Dame Productions, Media House Capital
Жанр: боевик, триллер
Год выпуска: 2014
Продолжительность: 01:30:22
Перевод: Профессиональный (многоголосый закадровый) [Официальный звук]
Cубтитры: Rus, Eng
Оригинальная аудиодорожка: английский
Режиссер: Крив Стендерс / Kriv Stenders
В ролях: Тереза Палмер, Саймон Пегг, Люк Хемсворт, Алиси Брага, Салливан Степлтон, Каллэн Мулвей, Брайан Браун, Стив Ле Маркванд, Тони Спенсер, Анна Филп
Описание: Молодая женщина, живущая в австралийском городке, является нитью, которая связывает три истории — убийства, шантажа и мести.

Тип релиза: BDRip 720p
Контейнер: MKV
Видео: MPEG-4 AVC, 4116 Кбит/с, 1280x536, 23,976 fps
Аудио: Rus, AC3, 192 kb/s (2 ch), 48 kHz
Аудио 2: Eng, DTS, 1510 kb/s (6 ch), 48 kHz

MediaInfo

Format : Matroska
Format version : Version 4 / Version 2
File size : 3.75 GiB
Duration : 1h 30mn
Overall bit rate : 5 935 Kbps
Movie name : Убей меня три раза. (Tonik)
Encoded date : UTC 2015-10-06 07:57:14
Writing application : mkvmerge v7.1.0 ('Good Love') 64bit built on Jul 27 2014 13:06:55
Writing library : libebml v1.3.0 + libmatroska v1.4.1
_STATISTICS_WRITING_APP : mkvmerge v7.1.0 ('Good Love') 64bit built on Jul 27 2014 13:06:55
_STATISTICS_WRITING_DATE_UTC : 2015-10-06 07:57:14
_STATISTICS_TAGS : BPS DURATION NUMBER_OF_FRAMES NUMBER_OF_BYTES
DURATION : 01:22:09.890000000
NUMBER_OF_FRAMES : 712
NUMBER_OF_BYTES : 32002
Video
ID : 1
Format : AVC
Format/Info : Advanced Video Codec
Format profile : High@L4.1
Format settings, CABAC : Yes
Format settings, ReFrames : 12 frames
Codec ID : V_MPEG4/ISO/AVC
Duration : 1h 30mn
Bit rate : 4 116 Kbps
Width : 1 280 pixels
Height : 536 pixels
Display aspect ratio : 2.40:1
Frame rate mode : Constant
Frame rate : 23.976 fps
Color space : YUV
Chroma subsampling : 4:2:0
Bit depth : 8 bits
Scan type : Progressive
Bits/(Pixel*Frame) : 0.250
Stream size : 2.60 GiB (69%)
Writing library : x264 core 142 r2431+42 c69a006 tMod [8-bit@all X86_64]
Encoding settings : cabac=1 / ref=12 / deblock=1:-3:-3 / analyse=0x3:0x133 / me=umh / subme=10 / psy=1 / fade_compensate=0.00 / psy_rd=1.10:0.00 / mixed_ref=1 / me_range=32 / chroma_me=1 / trellis=2 / 8x8dct=1 / cqm=0 / deadzone=21,11 / fast_pskip=0 / chroma_qp_offset=-2 / threads=6 / lookahead_threads=1 / sliced_threads=0 / nr=0 / decimate=0 / interlaced=0 / bluray_compat=0 / constrained_intra=0 / fgo=0 / bframes=8 / b_pyramid=2 / b_adapt=2 / b_bias=0 / direct=3 / weightb=1 / open_gop=0 / weightp=2 / keyint=250 / keyint_min=23 / scenecut=40 / intra_refresh=0 / rc=crf / mbtree=0 / crf=17.0000 / qcomp=0.60 / qpmin=0:0:0 / qpmax=69:69:69 / qpstep=4 / ip_ratio=1.40 / pb_ratio=1.30 / aq=4:1.00 / aq-sensitivity=10.00 / aq-factor=1.00:1.00:1.00 / aq2=0 / aq3=0
Language : English
Default : Yes
Forced : No
_STATISTICS_WRITING_APP : mkvmerge v7.1.0 ('Good Love') 64bit built on Jul 27 2014 13:06:55
_STATISTICS_WRITING_DATE_UTC : 2015-10-06 07:57:14
_STATISTICS_TAGS : BPS DURATION NUMBER_OF_FRAMES NUMBER_OF_BYTES
DURATION : 01:30:22.459000000
NUMBER_OF_FRAMES : 130009
NUMBER_OF_BYTES : 2867806068
Audio #1
ID : 2
Format : AC-3
Format/Info : Audio Coding 3
Mode extension : CM (complete main)
Format settings, Endianness : Big
Codec ID : A_AC3
Duration : 1h 30mn
Bit rate mode : Constant
Bit rate : 192 Kbps
Channel(s) : 2 channels
Channel positions : Front: L R
Sampling rate : 48.0 KHz
Bit depth : 16 bits
Compression mode : Lossy
Stream size : 124 MiB (3%)
Language : Russian
Default : Yes
Forced : No
Audio #2
ID : 3
Format : DTS
Format/Info : Digital Theater Systems
Mode : 16
Format settings, Endianness : Big
Codec ID : A_DTS
Duration : 1h 30mn
Bit rate mode : Constant
Bit rate : 1 509 Kbps
Channel(s) : 6 channels
Channel positions : Front: L C R, Side: L R, LFE
Sampling rate : 48.0 KHz
Bit depth : 24 bits
Compression mode : Lossy
Stream size : 975 MiB (25%)
Language : English
Default : No
Forced : No
Text #1
ID : 4
Format : UTF-8
Codec ID : S_TEXT/UTF8
Codec ID/Info : UTF-8 Plain Text
Language : Russian
Default : No
Forced : No
Text #2
ID : 5
Format : UTF-8
Codec ID : S_TEXT/UTF8
Codec ID/Info : UTF-8 Plain Text
Language : English
Default : No
Forced : No
Text #3
ID : 6
Format : UTF-8
Codec ID : S_TEXT/UTF8
Codec ID/Info : UTF-8 Plain Text
Title : SDH
Language : English
Default : No
Forced : No
Menu
00:00:00.000 : en:00:00:00.000
00:07:29.366 : en:00:07:29.366
00:13:41.571 : en:00:13:41.571
00:23:19.732 : en:00:23:19.732
00:30:45.385 : en:00:30:45.385
00:35:43.850 : en:00:35:43.850
00:44:16.863 : en:00:44:16.863
00:49:52.364 : en:00:49:52.364
00:57:46.546 : en:00:57:46.546
01:02:43.760 : en:01:02:43.760
01:12:23.297 : en:01:12:23.297
01:23:49.024 : en:01:23:49.024

Скриншоты

[Профиль] [ЛС]
Кто просматривает тему:

Показать сообщения:    

Текущее время: Сегодня 20:34

Часовой пояс: GMT



Вы не можете начинать темы
Вы не можете отвечать на сообщения
Вы не можете редактировать свои сообщения
Вы не можете удалять свои сообщения
Вы не можете голосовать в опросах
Вы не можете прикреплять файлы к сообщениям
Вы не можете скачивать файлы