Убей меня три раза / Kill Me Three Times (Крив Стендерс)[2014,Боевик, триллер] WEB-DL 720p | L

 
Автор Сообщение

adeei ®

Пол:

Стаж: 1 год 8 месяцев

Сообщений: 63

Откуда: Россия Иваново



Награды: 3 (Подробнее)

Mega Seeder 1 (Количество: 1) Mega Seeder 2 (Количество: 1) Mega Seeder 3 (Количество: 1)
Торрент-статистика

Создавать темы 08-Май-2015 17:33

[Цитировать]

Убей меня три раза / Kill Me Three Times «It's Paradise, until everyone gets hurt» Год выпуска: 2014
Жанр: Боевик, триллер
Выпущено: США, Австралия
Студия: Cargo Entertainment, Feisty Dame Productions, Media House Capital, Parabolic Pictures Inc.
Продолжительность: 01:30:22
Перевод: Любительский многоголосый (BadCatStudio)
Субтитры: English-Режиссер: Крив Стендерс-В ролях:Тереза Палмер, Саймон Пегг, Люк Хемсворт, Алиси Брага, Салливан Степлтон, Каллэн Мулвей, Брайан Браун, Стив Ле Маркванд, Тони Спенсер, Анна Филп-Описание: Молодая женщина, живущая в австралийском городке, является нитью, которая связывает три истории — убийства, шантажа и мести.- -Формат: MKV
Качество: WEB-DL 720p
Видео: MPEG-4 -AVC, 3923 Кбит/с, 1280х532
Аудио#1: Russian: AC3, 192 kb/s (2 ch)
Аудио#2: English: AC3, 384 kb/s (6 ch)-

Медио инфо

Format : Matroska
Format version : Version 4 / Version 2
File size : 2.90 GiB
Duration : 1h 30mn
Overall bit rate : 4 595 Kbps
Encoded date : UTC 2015-05-08 14:28:55
Writing application : mkvmerge v6.1.0 ('Old Devil') built on Mar 4 2013 09:10:42
Writing library : libebml v1.3.0 + libmatroska v1.4.0
Video
ID : 1
Format : AVC
Format/Info : Advanced Video Codec
Format profile : Main@L3.1
Format settings, CABAC : No
Format settings, ReFrames : 2 frames
Codec ID : V_MPEG4/ISO/AVC
Duration : 1h 30mn
Bit rate : 3 927 Kbps
Width : 1 280 pixels
Height : 532 pixels
Display aspect ratio : 2.40:1
Frame rate : 23.976 fps
Color space : YUV
Chroma subsampling : 4:2:0
Bit depth : 8 bits
Scan type : Progressive
Bits/(Pixel*Frame) : 0.241
Stream size : 2.48 GiB (85%)
Language : English
Default : Yes
Forced : No
Color primaries : BT.709-5, BT.1361, IEC 61966-2-4, SMPTE RP177
Transfer characteristics : BT.709-5, BT.1361
Matrix coefficients : BT.709-5, BT.1361, IEC 61966-2-4 709, SMPTE RP177
Audio #1
ID : 2
Format : AC-3
Format/Info : Audio Coding 3
Mode extension : CM (complete main)
Format settings, Endianness : Big
Codec ID : A_AC3
Duration : 1h 30mn
Bit rate mode : Constant
Bit rate : 192 Kbps
Channel(s) : 2 channels
Channel positions : Front: L R
Sampling rate : 48.0 KHz
Bit depth : 16 bits
Compression mode : Lossy
Stream size : 124 MiB (4%)
Language : Russian
Default : Yes
Forced : No
Audio #2
ID : 3
Format : AC-3
Format/Info : Audio Coding 3
Mode extension : CM (complete main)
Format settings, Endianness : Big
Codec ID : A_AC3
Duration : 1h 30mn
Bit rate mode : Constant
Bit rate : 384 Kbps
Channel(s) : 6 channels
Channel positions : Front: L C R, Side: L R, LFE
Sampling rate : 48.0 KHz
Bit depth : 16 bits
Compression mode : Lossy
Stream size : 248 MiB (8%)
Language : English
Default : No
Forced : No
Text
ID : 4
Format : UTF-8
Codec ID : S_TEXT/UTF8
Codec ID/Info : UTF-8 Plain Text
Language : English
Default : No
Forced : No
Menu
00:00:00.000 : en:1
00:06:35.000 : en:2
00:11:32.000 : en:3
00:17:09.000 : en:4
00:23:18.000 : en:5
00:28:22.000 : en:6
00:34:02.000 : en:7
00:40:21.000 : en:8
00:48:11.000 : en:9
00:53:21.000 : en:10
00:59:42.000 : en:11
01:05:30.000 : en:12
01:10:54.000 : en:13
01:15:00.000 : en:14
01:20:00.000 : en:15
01:23:43.000 : en:16

Внимание!!!

-
[Профиль] [ЛС]
Кто просматривает тему:

Показать сообщения:    

Текущее время: Сегодня 10:14

Часовой пояс: GMT



Вы не можете начинать темы
Вы не можете отвечать на сообщения
Вы не можете редактировать свои сообщения
Вы не можете удалять свои сообщения
Вы не можете голосовать в опросах
Вы не можете прикреплять файлы к сообщениям
Вы не можете скачивать файлы