Убей меня снова / Kill Me Again (1989) BDRip-AVC | P, P2, A

 
Автор Сообщение

Russian Mafia ®

Пол:

Стаж: 1 год 8 месяцев

Сообщений: 4257



Награды: 10 (Подробнее)

Mega Seeder 5 (Количество: 1) Mega Seeder 1 (Количество: 1) Mega Seeder 4 (Количество: 1)
Торрент-статистика

Создавать темы 30-Июл-2016 04:19

[Цитировать]

Производство: США / Incorporated Television Company (ITC), Propaganda Films
Жанр: Боевик, Триллер, Драма, Криминал
Продолжительность: 01:34:44
Перевод: Профессиональный многоголосый, профессиональный двухголосый (Екатеринбург Арт), авторский (Юрий Живов)
Субтитры: Отсутствуют
Режиссер: Джон Дал
Актеры: Вэл Килмер, Джоанн Уолли, Майкл Мэдсен, Пэт Маллиган, Ник Дмитрий, Дуан Таккер, Роберт Скруч, Моли Флймег, Доминик Демино, Даниэль Дорс
Описание:
Обворожительная преступница Фэй вместе со своим дружком Винсом ограбила курьеров, перевозивших деньги мафии. «Вырубив» Винса, Фэй скрылась вместе с деньгами. Чтобы замести следы, она обращается за помощью к частному детективу Джеку и просит его сымитировать ее смерть.
Попав под власть чар Фэй, Джек соглашается, и как по нотам разыгрывает «иллюзию убийства». Фэй исчезает, а полиция, мафия и Винс начинают охотиться за Джеком, чтобы выяснить, где деньги и …«труп» Фэй.

Качество видео: BDRip-AVC
Видео: AVC, 1024x556 (16:9), 23.976 fps, 2 467 Kbps (0.181 bit/pixel)
Аудио #1: AC-3, 48.0 KHz, 6 ch, 448 Kbps - многоголосый
Аудио #2: AC-3, 48.0 KHz, 2 ch, 192 Kbps - двухголосый
Аудио #3: AC-3, 48.0 KHz, 2 ch, 192 Kbps - авторский

Mediainfo:

Формат : Matroska
Версия формата : Version 2
Размер файла : 2,18 Гбайт
Продолжительность : 1 ч. 34 м.
Общий поток : 3299 Кбит/сек
Дата кодирования : UTC 2016-07-30 02:52:32
Программа кодирования : mkvmerge v5.3.0 ('I could have danced') built on Feb 9 2012 10:38:07
Библиотека кодирования : libebml v1.2.3 + libmatroska v1.3.0
Attachment : Yes
Видео
Идентификатор : 1
Формат : AVC
Формат/Информация : Advanced Video Codec
Профиль формата : High@L4.1
Параметр CABAC формата : Да
Параметр ReFrames формата : 10 кадров
Идентификатор кодека : V_MPEG4/ISO/AVC
Продолжительность : 1 ч. 34 м.
Битрейт : 2467 Кбит/сек
Ширина : 1024 пикселя
Высота : 556 пикселей
Соотношение сторон : 1,85:1
Режим частоты кадров : Постоянный
Частота кадров : 23,976 кадра/сек
Цветовое пространство : YUV
Субдискретизация насыщенности : 4:2:0
Битовая глубина : 8 бит
Тип развёртки : Прогрессивная
Бит/(Пиксели*Кадры) : 0.181
Размер потока : 1,59 Гбайт (73%)
Библиотека кодирования : x264 core 146 r2538 121396c
Настройки программы : cabac=1 / ref=10 / deblock=1:-3:-3 / analyse=0x3:0x133 / me=umh / subme=10 / psy=1 / psy_rd=1.00:0.15 / mixed_ref=1 / me_range=32 / chroma_me=1 / trellis=2 / 8x8dct=1 / cqm=0 / deadzone=21,11 / fast_pskip=0 / chroma_qp_offset=-3 / threads=12 / lookahead_threads=2 / sliced_threads=0 / nr=0 / decimate=0 / interlaced=0 / bluray_compat=0 / constrained_intra=0 / bframes=8 / b_pyramid=2 / b_adapt=2 / b_bias=0 / direct=3 / weightb=1 / open_gop=0 / weightp=2 / keyint=240 / keyint_min=23 / scenecut=40 / intra_refresh=0 / rc_lookahead=40 / rc=2pass / mbtree=0 / bitrate=2467 / ratetol=1.0 / qcomp=0.60 / qpmin=0 / qpmax=69 / qpstep=4 / cplxblur=20.0 / qblur=0.5 / vbv_maxrate=50000 / vbv_bufsize=62500 / nal_hrd=none / filler=0 / ip_ratio=1.40 / pb_ratio=1.30 / aq=1:0.70
Default : Да
Forced : Нет
Аудио #1
Идентификатор : 2
Формат : AC-3
Формат/Информация : Audio Coding 3
Расширение режима : CM (complete main)
Параметр Endianness формата : Big
Идентификатор кодека : A_AC3
Продолжительность : 1 ч. 34 м.
Вид битрейта : Постоянный
Битрейт : 448 Кбит/сек
Каналы : 6 каналов
Расположение каналов : Front: L C R, Side: L R, LFE
Частота : 48,0 КГц
Битовая глубина : 16 бит
Метод сжатия : С потерями
Размер потока : 304 Мбайт (14%)
Заголовок : Многоголосый
Язык : Russian
Default : Да
Forced : Нет
Аудио #2
Идентификатор : 3
Формат : AC-3
Формат/Информация : Audio Coding 3
Расширение режима : CM (complete main)
Параметр Endianness формата : Big
Идентификатор кодека : A_AC3
Продолжительность : 1 ч. 34 м.
Вид битрейта : Постоянный
Битрейт : 192 Кбит/сек
Каналы : 2 канала
Расположение каналов : Front: L R
Частота : 48,0 КГц
Битовая глубина : 16 бит
Метод сжатия : С потерями
Размер потока : 130 Мбайт (6%)
Заголовок : Двухголосый - Екатеринбург Арт
Язык : Russian
Default : Нет
Forced : Нет
Аудио #3
Идентификатор : 4
Формат : AC-3
Формат/Информация : Audio Coding 3
Расширение режима : CM (complete main)
Параметр Endianness формата : Big
Идентификатор кодека : A_AC3
Продолжительность : 1 ч. 34 м.
Вид битрейта : Постоянный
Битрейт : 192 Кбит/сек
Каналы : 2 канала
Расположение каналов : Front: L R
Частота : 48,0 КГц
Битовая глубина : 16 бит
Метод сжатия : С потерями
Размер потока : 130 Мбайт (6%)
Заголовок : Авторский (Ю.Живов)
Язык : Russian
Default : Нет
Forced : Нет
Меню
00:00:00.000 : :Chapter 01
00:07:09.971 : :Chapter 02
00:13:17.797 : :Chapter 03
00:20:08.457 : :Chapter 04
00:24:48.779 : :Chapter 05
00:31:18.043 : :Chapter 06
00:37:32.958 : :Chapter 07
00:44:27.623 : :Chapter 08
00:50:08.339 : :Chapter 09
00:53:54.356 : :Chapter 10
00:59:29.691 : :Chapter 11
01:07:05.563 : :Chapter 12
01:12:25.716 : :Chapter 13
01:18:33.751 : :Chapter 14
01:21:52.991 : :Chapter 15
01:30:15.619 : :Chapter 16
Скриншоты:
[Профиль] [ЛС]
Кто просматривает тему:

Показать сообщения:    

Текущее время: Сегодня 10:15

Часовой пояс: GMT



Вы не можете начинать темы
Вы не можете отвечать на сообщения
Вы не можете редактировать свои сообщения
Вы не можете удалять свои сообщения
Вы не можете голосовать в опросах
Вы не можете прикреплять файлы к сообщениям
Вы не можете скачивать файлы