Тёмный рыцарь: Трилогия / The Dark Knight: Trilogy / Batman Trilogy (2005-2012) BDRip 1080p | 60 fps | D

 
Автор Сообщение

sergej644 ®

Пол:

Стаж: 4 года 11 месяцев

Сообщений: 6042

Откуда: Soviet Union



Награды: Нет

Торрент-статистика

Создавать темы 15-Ноя-2014 15:12

[Цитировать]

--Тёмный рыцарь: Трилогия / The Dark Knight: Trilogy / Batman Trilogy (2005-2012) BDRip 1080p

Спасибо

Raven за помощь в оформлении и за обложеки

Бэтмен: Начало

--Бэтмен: Начало
-Название: Бэтмен: Начало
Оригинальное название: Batman Begins
Год выпуска: 2005
Страна: США, Великобритания
Жанр: боевик, триллер, криминал
Продолжительность: 02:20:03
Перевод: Дубляж - [Лицензия]
Субтитры: русские (Полные), английские (Полные)-Режиссер: Кристофер Нолан / Christopher Nolan-В ролях: Кристиан Бэйл (Bruce Wayne / Batman), Кэти Холмс (Rachel Dawes), Майкл Кейн (Alfred), Киллиан Мёрфи (Dr. Jonathan Crane / Scarecrow), Том Уилкинсон (Carmine Falcone), Лиам Нисон (Ducard), Кен Ватанабе (Ra's Al Ghul), Гари Олдман (Jim Gordon), Морган Фриман (Lucius Fox), Рутгер Хауэр (Earle), Раде Шербеджия (Homeless Man), Марк Бун Джуниор (Flass)-Описание:
В детстве юный наследник огромного состояния Брюс Уэйн оказался свидетелем убийства своих родителей, и тогда он решил бороться с преступностью. Спустя годы он отправляется в путешествие по миру, чтобы найти способ восстановить справедливость. Обучение у мудрого наставника боевым искусствам дает ему силу и смелость. Вернувшись в родной город, Уэйн становится Бэтменом и ведет борьбу со злом.-Рейтинг

imdb.com: 8.30 (688 671)
MPAA: PG-13 - Детям до 13 лет просмотр не желателен-Автор рипа:Tiberiumsun69-Качество: BDRip 1080p
Формат: MKV
Видео кодек: AVC
Аудио кодек:AC3
Видео: 1920x800, 14000 kbps, 59,940 fps
Аудио №1: русский/ 5.1/ 48 kHz/ 640 kbps/ AC3/ |Дубляж|
Аудио №2: английский/ 5.1/ 48 kHz/ 640 kbps/ AC3
Навигация по главам: есть-

MI

Общее
Уникальный идентификатор : 194538304505565509208253763375366103213 (0x925AB6EFE0F519FDAE5224BFA81360AD)
Полное имя : F:Темный Рыцарь 1080p 60fpsБэтмен Начало 1080p 60fps.mkv
Формат : Matroska
Версия формата : Version 4 / Version 2
Размер файла : 14,9 Гбайт
Длительность : 2 ч. 20 м.
Общий поток : 15,3 Мбит/сек
Название фильма : Batman Begins (2005) BDRip
Дата кодирования : UTC 2014-04-21 08:09:40
Программа кодирования : mkvmerge v6.9.1 ('Blue Panther') 64bit built on Apr 18 2014 18:23:38
Библиотека кодирования : libebml v1.3.0 + libmatroska v1.4.1
Attachment : Yes
Видео
Идентификатор : 1
Формат : AVC
Формат/Информация : Advanced Video Кодек
Профиль формата : High@L4.1
Параметр CABAC формата : Да
Параметр ReFrames формата : 5 кадров
Идентификатор кодека : V_MPEG4/ISO/AVC
Длительность : 2 ч. 20 м.
Битрейт : 14,0 Мбит/сек
Ширина : 1920 пикселей
Высота : 800 пикселей
Соотношение сторон : 2,40:1
Режим частоты кадров : Постоянный
Частота кадров : 59,880 кадров/сек
Частота кадров в оригинале : 59,940 кадров/сек
Цветовое пространство : YUV
Субдискретизация насыщенности : 4:2:0
Битовая глубина : 8 бит
Тип развёртки : Прогрессивная
Бит/(Пиксели*Кадры) : 0.152
Размер потока : 13,4 Гбайт (90%)
Библиотека кодирования : x264 core 130 r2273 b3065e6
Настройки программы : cabac=1 / ref=5 / deblock=1:-1:-1 / analyse=0x3:0 / me=umh / subme=9 / psy=1 / psy_rd=1.00:0.10 / mixed_ref=1 / me_range=24 / chroma_me=0 / trellis=1 / 8x8dct=1 / cqm=0 / deadzone=21,11 / fast_pskip=0 / chroma_qp_offset=-3 / threads=6 / lookahead_threads=1 / sliced_threads=0 / nr=0 / decimate=0 / interlaced=0 / bluray_compat=0 / constrained_intra=0 / bframes=5 / b_pyramid=2 / b_adapt=2 / b_bias=0 / direct=3 / weightb=1 / open_gop=0 / weightp=2 / keyint=250 / keyint_min=25 / scenecut=40 / intra_refresh=0 / rc=2pass / mbtree=0 / bitrate=14000 / ratetol=1.0 / qcomp=0.60 / qpmin=0 / qpmax=69 / qpstep=4 / cplxblur=20.0 / qblur=0.5 / ip_ratio=1.40 / pb_ratio=1.30 / aq=1:0.90
Язык : English
Default : Да
Forced : Нет
Аудио #1
Идентификатор : 2
Формат : AC-3
Формат/Информация : Audio Coding 3
Расширение режима : CM (complete main)
Параметр Endianness формата : Big
Идентификатор кодека : A_AC3
Длительность : 2 ч. 20 м.
Вид битрейта : Постоянный
Битрейт : 640 Кбит/сек
Каналы : 6 каналов
Расположение каналов : Front: L C R, Side: L R, LFE
Частота : 48,0 КГц
Битовая глубина : 16 бит
Метод сжатия : С потерями
Размер потока : 641 Мбайт (4%)
Заголовок : Dub
Язык : Russian
Default : Да
Forced : Нет
Аудио #2
Идентификатор : 5
Формат : AC-3
Формат/Информация : Audio Coding 3
Расширение режима : CM (complete main)
Параметр Endianness формата : Big
Идентификатор кодека : A_AC3
Длительность : 2 ч. 20 м.
Вид битрейта : Постоянный
Битрейт : 640 Кбит/сек
Каналы : 6 каналов
Расположение каналов : Front: L C R, Side: L R, LFE
Частота : 48,0 КГц
Битовая глубина : 16 бит
Метод сжатия : С потерями
Размер потока : 641 Мбайт (4%)
Заголовок : Original
Язык : English
Default : Нет
Forced : Нет
Текст #1
Идентификатор : 3
Формат : UTF-8
Идентификатор кодека : S_TEXT/UTF8
Идентификатор кодека/Информация : UTF-8 Plain Text
Заголовок : Full
Язык : Russian
Default : Нет
Forced : Нет
Текст #2
Идентификатор : 4
Формат : UTF-8
Идентификатор кодека : S_TEXT/UTF8
Идентификатор кодека/Информация : UTF-8 Plain Text
Заголовок : Full
Язык : English
Default : Нет
Forced : Нет
Меню
00:00:00.000 : en:You're Practice
00:03:39.100 : en:More Than Just a Man
00:07:31.133 : en:What Do You Fear?
00:11:33.367 : en:Tragedy
00:16:14.667 : en:The Will to Act
00:19:43.067 : en:This House
00:24:17.768 : en:Not One of Your Good People
00:28:23.202 : en:Carmine Falcone
00:31:23.702 : en:Embrace Your Fear
00:35:51.835 : en:Gotham Must Be Destroyed
00:38:22.335 : en:Monastery Mayhem
00:41:12.535 : en:Incorruptible Symbol
00:43:05.469 : en:Nest of Bats
00:46:55.303 : en:Welcome Home
00:49:40.904 : en:Applied Sciences
00:53:23.071 : en:Gordon's Visitor
00:55:52.071 : en:Does It Come in Black?
00:57:58.972 : en:Secrets of Scary People
01:03:28.439 : en:Rattle the Cages
01:05:49.040 : en:Missing Weapon
01:08:35.040 : en:More Inside
01:11:21.707 : en:Crane's Mask
01:13:15.041 : en:Do I Look Like a Cop?
01:15:04.208 : en:Lighten Up
01:19:46.109 : en:Work to Do
01:23:49.576 : en:Arkham's Basement Secrets
01:28:57.676 : en:Winged Backup
01:32:31.243 : en:Tumbler on the Roof
01:37:43.276 : en:The Monster of Yours
01:40:27.743 : en:Dual Identities
01:45:03.243 : en:Purging Fire
01:49:25.577 : en:Inferno Rescue
01:51:22.744 : en:Spread the Word: Panic
01:54:42.712 : en:What Defines Me
01:58:04.112 : en:Catching a Train
02:01:48.212 : en:Not Kill But Not Save
02:04:53.879 : en:New Owner
02:05:59.646 : en:This Is Your Mask
02:09:10.980 : en:Calling Card
02:10:49.447 : en:End Credits

Скриншоты

Темный рыцарь

--Темный рыцарь
-Название: Темный рыцарь
Оригинальное название: The Dark Knight
Год выпуска: 2008
Страна: США, Великобритания
Жанр: фантастика, боевик, триллер, криминал
Продолжительность: 02:32:13
Перевод: Дубляж - [Лицензия]
Субтитры: русские (Полные), английские (Полные)-Режиссер: Кристофер Нолан / Christopher Nolan-В ролях: Кристиан Бэйл (Bruce Wayne), Хит Леджер (Joker), Аарон Экхарт (Harvey Dent), Мэгги Джилленхол (Rachel), Гари Олдман (Gordon), Майкл Кейн (Alfred), Морган Фриман (Lucius Fox), Чин Хань (Lau), Нестор Карбонелл (Mayor), Эрик Робертс (Maroni), Ричи Костер (Chechen), Моник Кёрнен (Ramirez)-Описание:
Бэтмен поднимает ставки в войне с криминалом. С помощью лейтенанта Джима Гордона и прокурора Харви Дента он намерен очистить улицы от преступности, отравляющей город. Сотрудничество оказывается эффективным, но скоро они обнаружат себя посреди хаоса, развязанного восходящим криминальным гением, известным испуганным горожанам под именем Джокер.-Рейтинг

imdb.com: 9.00 (1 205 701)
MPAA: PG-13 - Детям до 13 лет просмотр не желателен-Автор рипа:Tiberiumsun69-Качество: BDRip 1080p
Формат: MKV
Видео кодек: AVC
Аудио кодек:AC3
Видео: 1920x1080, 14000 kbps, 59,940 fps
Аудио №1: русский/ 5.1/ 48 kHz/ 640 kbps/ AC3/ |Дубляж|
Аудио №2: английский/ 5.1/ 48 kHz/ 640 kbps/ AC3
Навигация по главам: есть-

MI

Общее
Уникальный идентификатор : 205621162075010332169731063046096869039 (0x9AB13200C0E06DFCB3CB939C8D88D6AF)
Полное имя : F:Темный Рыцарь 1080p 60fpsТемный Рыцарь 1080p 60fps.mkv
Формат : Matroska
Версия формата : Version 4 / Version 2
Размер файла : 16,0 Гбайт
Длительность : 2 ч. 32 м.
Общий поток : 15,1 Мбит/сек
Дата кодирования : UTC 2014-04-21 23:22:46
Программа кодирования : mkvmerge v6.9.1 ('Blue Panther') 64bit built on Apr 18 2014 18:23:38
Библиотека кодирования : libebml v1.3.0 + libmatroska v1.4.1
Видео
Идентификатор : 1
Формат : AVC
Формат/Информация : Advanced Video Кодек
Профиль формата : High@L4.1
Параметр CABAC формата : Да
Параметр ReFrames формата : 5 кадров
Идентификатор кодека : V_MPEG4/ISO/AVC
Длительность : 2 ч. 32 м.
Битрейт : 14,0 Мбит/сек
Ширина : 1920 пикселей
Высота : 1080 пикселей
Соотношение сторон : 16:9
Режим частоты кадров : Постоянный
Частота кадров : 59,880 кадров/сек
Частота кадров в оригинале : 59,940 кадров/сек
Цветовое пространство : YUV
Субдискретизация насыщенности : 4:2:0
Битовая глубина : 8 бит
Тип развёртки : Прогрессивная
Бит/(Пиксели*Кадры) : 0.113
Размер потока : 14,6 Гбайт (91%)
Библиотека кодирования : x264 core 130 r2273 b3065e6
Настройки программы : cabac=1 / ref=5 / deblock=1:-1:-1 / analyse=0x3:0 / me=umh / subme=9 / psy=1 / psy_rd=1.00:0.10 / mixed_ref=1 / me_range=24 / chroma_me=0 / trellis=1 / 8x8dct=1 / cqm=0 / deadzone=21,11 / fast_pskip=0 / chroma_qp_offset=-3 / threads=6 / lookahead_threads=1 / sliced_threads=0 / nr=0 / decimate=0 / interlaced=0 / bluray_compat=0 / constrained_intra=0 / bframes=5 / b_pyramid=2 / b_adapt=2 / b_bias=0 / direct=3 / weightb=1 / open_gop=0 / weightp=2 / keyint=250 / keyint_min=25 / scenecut=40 / intra_refresh=0 / rc=2pass / mbtree=0 / bitrate=14000 / ratetol=1.0 / qcomp=0.60 / qpmin=0 / qpmax=69 / qpstep=4 / cplxblur=20.0 / qblur=0.5 / ip_ratio=1.40 / pb_ratio=1.30 / aq=1:0.90
Язык : English
Default : Да
Forced : Нет
Аудио #1
Идентификатор : 2
Формат : AC-3
Формат/Информация : Audio Coding 3
Расширение режима : CM (complete main)
Параметр Endianness формата : Big
Идентификатор кодека : A_AC3
Длительность : 2 ч. 32 м.
Вид битрейта : Постоянный
Битрейт : 448 Кбит/сек
Каналы : 6 каналов
Расположение каналов : Front: L C R, Side: L R, LFE
Частота : 48,0 КГц
Битовая глубина : 16 бит
Метод сжатия : С потерями
Размер потока : 488 Мбайт (3%)
Заголовок : Dub
Язык : Russian
Default : Да
Forced : Нет
Аудио #2
Идентификатор : 5
Формат : AC-3
Формат/Информация : Audio Coding 3
Расширение режима : CM (complete main)
Параметр Endianness формата : Big
Идентификатор кодека : A_AC3
Длительность : 2 ч. 32 м.
Вид битрейта : Постоянный
Битрейт : 640 Кбит/сек
Каналы : 6 каналов
Расположение каналов : Front: L C R, Side: L R, LFE
Частота : 48,0 КГц
Битовая глубина : 16 бит
Метод сжатия : С потерями
Размер потока : 697 Мбайт (4%)
Заголовок : Original
Язык : English
Default : Нет
Forced : Нет
Текст #1
Идентификатор : 3
Формат : UTF-8
Идентификатор кодека : S_TEXT/UTF8
Идентификатор кодека/Информация : UTF-8 Plain Text
Заголовок : Full
Язык : Russian
Default : Нет
Forced : Нет
Текст #2
Идентификатор : 4
Формат : UTF-8
Идентификатор кодека : S_TEXT/UTF8
Идентификатор кодека/Информация : UTF-8 Plain Text
Заголовок : Full
Язык : English
Default : Нет
Forced : Нет
Меню
00:00:00.000 : en:Robbery Gone Stranger
00:06:23.966 : en:Intimidate Mode
00:10:36.260 : en:Unknown Limits
00:13:52.581 : en:Last Game in Town
00:17:54.198 : en:Protector's Mantle
00:21:39.339 : en:Kill the Batman
00:26:10.026 : en:Hong Kong Holiday
00:29:36.274 : en:Why so Serious?
00:31:42.483 : en:Landing Lau
00:37:49.058 : en:Men of their Word
00:43:34.069 : en:Hero with a Face
00:46:39.546 : en:Somebody with Access
00:48:57.768 : en:Tonight's Entertainment
00:53:19.446 : en:Watch the World Burn
00:57:15.640 : en:Your Plan is Blackmail?
00:59:26.354 : en:Dishonour Guard
01:03:59.627 : en:No Rules
01:08:23.557 : en:Right Choice
01:10:48.327 : en:I am the Batman
01:14:24.918 : en:Trip to Country
01:18:05.639 : en:Bat-pod Faceoff
01:22:22.437 : en:We Got Him
01:24:48.583 : en:Good Cop, Bad Cop
01:30:48.442 : en:Two-way Race
01:34:04.972 : en:Burned Down
01:39:57.783 : en:Harvey Two-Face
01:42:05.494 : en:Better Class of Criminal
01:44:59.918 : en:Watch Out
01:47:00.872 : en:Agent of Chaos
01:51:09.913 : en:Hospital Boom
01:54:14.639 : en:Too Much Power
01:57:04.017 : en:Unlucky
02:00:14.248 : en:Ferry Scary
02:03:37.576 : en:Prewitt Building Siege
02:09:07.614 : en:Verge of Fireworks
02:12:27.314 : en:Battle for Gotham's Soul
02:15:22.781 : en:One Pointing the Gun
02:19:58.681 : en:Dark Knight
02:24:26.658 : en:End Credits

Скриншоты

Темный рыцарь: Возрождение легенды

--Темный рыцарь: Возрождение легенды
-Название: Темный рыцарь: Возрождение легенды
Оригинальное название: The Dark Knight Rises
Год выпуска: 2012
Страна: США, Великобритания
Жанр: фантастика, боевик, триллер, драма, криминал
Продолжительность: 02:44:33
Перевод: Дубляж - [Лицензия]
Субтитры: русские (Полные), английские (Полные)-Режиссер: Кристофер Нолан / Christopher Nolan-В ролях: Кристиан Бэйл (Bruce Wayne), Гари Олдман (Commissioner Gordon), Том Харди (Bane), Джозеф Гордон-Левитт (Blake), Энн Хэтэуэй (Selina), Марион Котийяр (Miranda), Морган Фриман (Fox), Майкл Кейн (Alfred), Мэттью Модайн (Foley), Алон Абутбул (Dr. Pavel), Бен Мендельсон (Daggett), Берн Горман (Stryver)-Описание:
Восемь лет назад Бэтмен растворился в ночи, превратившись из героя в беглеца. Приняв на себя вину за смерть прокурора Харви Дента, он пожертвовал всем. Вместе с комиссаром Гордоном они решили, что так будет лучше для всех. Пока преступность была раздавлена антикриминальным актом Дента, ложь действовала.
Тем не менее, еще опаснее становится появление нового врага Бэйна, чье лицо закрыто маской. Он разворачивает в Готэме чудовищную деятельность, и это вынуждает Брюса Уэйна выйти из импровизированного изгнания. Однако даже надев свой костюм, Бэтмен может проиграть Бэйну. Но с появлением хитрой воровки по прозвищу Женщина - Кошка с загадочным прошлым всё меняется.-Рейтинг

imdb.com: 8.60 (804 281)
MPAA: PG-13 - Детям до 13 лет просмотр не желателен-Автор рипа:Tiberiumsun69-Качество: BDRip 1080p
Формат: MKV
Видео кодек: AVC
Аудио кодек:AC3
Видео: 1920x1080, 14000 kbps, 59,940 fps
Аудио №1: русский/ 5.1/ 48 kHz/ 640 kbps/ AC3/ |Дубляж|
Аудио №2: английский/ 5.1/ 48 kHz/ 640 kbps/ AC3
Навигация по главам: есть-

MI

Общее
Уникальный идентификатор : 184015695071225986354775599431962933856 (0x8A70223C9EC3DDF1A2FDA9E47BAD3A60)
Полное имя : F:Темный Рыцарь 1080p 60fpsТемный Рыцарь Возрождение легенды 1080p 60fps.mkv
Формат : Matroska
Версия формата : Version 4 / Version 2
Размер файла : 17,6 Гбайт
Длительность : 2 ч. 44 м.
Общий поток : 15,3 Мбит/сек
Дата кодирования : UTC 2014-04-23 08:13:08
Программа кодирования : mkvmerge v6.9.1 ('Blue Panther') 64bit built on Apr 18 2014 18:23:38
Библиотека кодирования : libebml v1.3.0 + libmatroska v1.4.1
Видео
Идентификатор : 1
Формат : AVC
Формат/Информация : Advanced Video Кодек
Профиль формата : High@L4.1
Параметр CABAC формата : Да
Параметр ReFrames формата : 5 кадров
Идентификатор кодека : V_MPEG4/ISO/AVC
Длительность : 2 ч. 44 м.
Битрейт : 14,0 Мбит/сек
Ширина : 1920 пикселей
Высота : 1080 пикселей
Соотношение сторон : 16:9
Режим частоты кадров : Постоянный
Частота кадров : 59,880 кадров/сек
Частота кадров в оригинале : 59,940 кадров/сек
Цветовое пространство : YUV
Субдискретизация насыщенности : 4:2:0
Битовая глубина : 8 бит
Тип развёртки : Прогрессивная
Бит/(Пиксели*Кадры) : 0.113
Размер потока : 15,7 Гбайт (90%)
Библиотека кодирования : x264 core 130 r2273 b3065e6
Настройки программы : cabac=1 / ref=5 / deblock=1:-1:-1 / analyse=0x3:0 / me=umh / subme=9 / psy=1 / psy_rd=1.00:0.10 / mixed_ref=1 / me_range=24 / chroma_me=0 / trellis=1 / 8x8dct=1 / cqm=0 / deadzone=21,11 / fast_pskip=0 / chroma_qp_offset=-3 / threads=6 / lookahead_threads=1 / sliced_threads=0 / nr=0 / decimate=0 / interlaced=0 / bluray_compat=0 / constrained_intra=0 / bframes=5 / b_pyramid=2 / b_adapt=2 / b_bias=0 / direct=3 / weightb=1 / open_gop=0 / weightp=2 / keyint=250 / keyint_min=25 / scenecut=40 / intra_refresh=0 / rc=2pass / mbtree=0 / bitrate=14000 / ratetol=1.0 / qcomp=0.60 / qpmin=0 / qpmax=69 / qpstep=4 / cplxblur=20.0 / qblur=0.5 / ip_ratio=1.40 / pb_ratio=1.30 / aq=1:0.90
Язык : English
Default : Да
Forced : Нет
Аудио #1
Идентификатор : 2
Формат : AC-3
Формат/Информация : Audio Coding 3
Расширение режима : CM (complete main)
Параметр Endianness формата : Big
Идентификатор кодека : A_AC3
Длительность : 2 ч. 44 м.
Вид битрейта : Постоянный
Битрейт : 640 Кбит/сек
Каналы : 6 каналов
Расположение каналов : Front: L C R, Side: L R, LFE
Частота : 48,0 КГц
Битовая глубина : 16 бит
Метод сжатия : С потерями
Размер потока : 753 Мбайт (4%)
Заголовок : Dub
Язык : Russian
Default : Да
Forced : Нет
Аудио #2
Идентификатор : 3
Формат : AC-3
Формат/Информация : Audio Coding 3
Расширение режима : CM (complete main)
Параметр Endianness формата : Big
Идентификатор кодека : A_AC3
Длительность : 2 ч. 44 м.
Вид битрейта : Постоянный
Битрейт : 640 Кбит/сек
Каналы : 6 каналов
Расположение каналов : Front: L C R, Side: L R, LFE
Частота : 48,0 КГц
Битовая глубина : 16 бит
Метод сжатия : С потерями
Размер потока : 753 Мбайт (4%)
Заголовок : Original
Язык : English
Default : Нет
Forced : Нет
Текст #1
Идентификатор : 4
Формат : UTF-8
Идентификатор кодека : S_TEXT/UTF8
Идентификатор кодека/Информация : UTF-8 Plain Text
Заголовок : Forced
Язык : Russian
Default : Да
Forced : Нет
Текст #2
Идентификатор : 5
Формат : UTF-8
Идентификатор кодека : S_TEXT/UTF8
Идентификатор кодека/Информация : UTF-8 Plain Text
Заголовок : Full
Язык : Russian
Default : Нет
Forced : Нет
Текст #3
Идентификатор : 6
Формат : UTF-8
Идентификатор кодека : S_TEXT/UTF8
Идентификатор кодека/Информация : UTF-8 Plain Text
Заголовок : Full
Язык : English
Default : Нет
Forced : Нет
Меню
00:00:00.000 : en:Chapter 01
00:09:02.833 : en:Chapter 02
00:19:08.522 : en:Chapter 03
00:30:15.855 : en:Chapter 04
00:41:08.799 : en:Chapter 05
00:51:09.524 : en:Chapter 06
01:00:29.667 : en:Chapter 07
01:10:04.033 : en:Chapter 08
01:20:13.475 : en:Chapter 09
01:31:00.580 : en:Chapter 10
01:39:24.291 : en:Chapter 01
01:48:58.490 : en:Chapter 11
02:00:21.589 : en:Chapter 12
02:10:47.673 : en:Chapter 12
02:19:12.635 : en:Chapter 13
02:30:14.630 : en:Chapter 14
02:36:50.526 : en:Chapter 15

Скриншоты

--
[Профиль] [ЛС]
Кто просматривает тему:

Форум Тема Автор Размер
Action FPS (1st Person) Call of Cthulhu: Dark Corners of the Earth / Зов Ктулху: Тёмные уголки Земли [L] [RUS / RUS] (2006) TorrentFilm 1.2 GB
Фантастика и фэнтези Баштовая Ксения, Иванова Виктория – Тёмный принц 01. Тяжело быть младшим (2015) MP3 Swager 737 MB
Фантастика и фэнтези Баштовая Ксения, Иванова Виктория – Тёмный принц 02. Маленьких все обидеть норовят! (2015) MP3 Swager 876 MB
Фантастика и фэнтези Баштовая Ксения, Иванова Виктория – Тёмный принц 03. Что выросло, то выросло (2016) MP3 Swager 871 MB
Фильмы 2011 года Гайвер 2: Темный герой / Guyver: Dark Hero (Стив Ванг / Steve Wang) [1994, США, Фантастика, боевик, DVDRip] (Специальное полное издание / Special Extended Version) 5 x AVO (Визгунов + Гаври... Russian Mafia 1.78 GB
Мировая классика Джон Голсуорси - Темный цветок [Евгений Терновский, 2014] Magnat 474 MB
Фильмы 2006-2008 года Дом темных бабочек / Tummien Perhosten Koti (Доме Карукоски / Dome Karukoski) [2008, Финляндия, Драма, DVDRip] VO + Sub Rus + Original Fin TorrentFilm 1.53 GB
Фантастика и фэнтези Колентьев Алексей - Самый тёмный час (2015) MP3 Swager 1.01 GB
Показать сообщения:    

Текущее время: Сегодня 22:06

Часовой пояс: GMT



Вы не можете начинать темы
Вы не можете отвечать на сообщения
Вы не можете редактировать свои сообщения
Вы не можете удалять свои сообщения
Вы не можете голосовать в опросах
Вы не можете прикреплять файлы к сообщениям
Вы не можете скачивать файлы