Тёмный мир: Равновесие (Олег Асадулин) [2013, Россия, комедия, BDRip 1080p] [GER Transfer]

 
Автор Сообщение

TorrentFilm ®

Пол:

Стаж: 1 год 11 месяцев

Сообщений: 7741



Награды: Нет

Торрент-статистика

Создавать темы 02-Мар-2016 00:08

[Цитировать]

Тёмный мир: Равновесие
Страна: Россия
Жанр: фэнтези, приключения
Год выпуска: 2013
Продолжительность: 01:35:21
Перевод: Не требуется
Cубтитры нет
Оригинальная аудиодорожка: русский
Режиссёр: Олег Асадулин
В ролях: Мария Пирогова, Павел Прилучный, Макар Запорожский, Евгения Брик, Александр Ратников, Владислав Абашин, Петр Семак, Алиса Хазанова, Валерий Опёнкин, Тимофей Носков
Описание: Каждый день они крадут твои силы, твои эмоции, твою любовь. Мы называем их Тени. Работа таких, как мы — доставлять их обратно в Тёмный мир. Надвигается катастрофа, и человечество может оказаться во власти тьмы…
И только мы можем сохранить равновесие.
Сэмпл: https://www.sendspace.com/file/39gpz6
Качество видео: BDRip 1080p
Формат видео: MKV
Видео: MPEG-4 AVC/H.264 / 12.5 mbps / 1920x1080 / 23.976 fps
Аудио: Rus / DTS / 6 ch / 768 kbps / 48 kHz
#Сохранены оригинальные чаптеры как на Blu-ray

MediaInfo

General
Unique ID : 221471904586260463354039416773033736628 (0xA69DEFF22084A11A8B4696CE528639B4)
Complete name : J:\Torrents\Тёмный мир - Равновесие (2013) BDRip-1080p.mkv
Format : Matroska
Format version : Version 2
File size : 8.85 GiB
Duration : 1h 35mn
Overall bit rate : 13.3 Mbps
Movie name : Тёмный мир: Равновесие (2013)
Encoded date : UTC 2016-02-28 23:43:13
Writing application : mkvmerge v5.5.0 ('Healer') built on Apr 24 2012 23:47:03
Writing library : libebml v1.2.3 + libmatroska v1.3.0
Video
ID : 1
Format : AVC
Format/Info : Advanced Video Codec
Format profile : High@L4.1
Format settings, CABAC : Yes
Format settings, ReFrames : 4 frames
Codec ID : V_MPEG4/ISO/AVC
Duration : 1h 35mn
Bit rate : 12.5 Mbps
Width : 1 920 pixels
Height : 1 080 pixels
Display aspect ratio : 16:9
Frame rate mode : Constant
Frame rate : 23.976 fps
Color space : YUV
Chroma subsampling : 4:2:0
Bit depth : 8 bits
Scan type : Progressive
Bits/(Pixel*Frame) : 0.252
Stream size : 8.17 GiB (92%)
Title : BDRip (1080p) / MPEG-4 AVC/H.264 / 12.5 mbps / 1920x1080 / 23.976 fps
Writing library : x264 core 125 r2200 999b753
Encoding settings : cabac=1 / ref=4 / deblock=1:-3:-3 / analyse=0x3:0x113 / me=umh / subme=10 / psy=1 / psy_rd=1.00:0.10 / mixed_ref=1 / me_range=24 / chroma_me=1 / trellis=2 / 8x8dct=1 / cqm=0 / deadzone=21,11 / fast_pskip=1 / chroma_qp_offset=-3 / threads=6 / lookahead_threads=1 / sliced_threads=0 / nr=0 / decimate=1 / interlaced=0 / bluray_compat=0 / constrained_intra=0 / bframes=11 / b_pyramid=2 / b_adapt=1 / b_bias=0 / direct=1 / weightb=1 / open_gop=0 / weightp=2 / keyint=250 / keyint_min=23 / scenecut=40 / intra_refresh=0 / rc_lookahead=40 / rc=2pass / mbtree=1 / bitrate=12529 / ratetol=1.0 / qcomp=0.60 / qpmin=0 / qpmax=69 / qpstep=4 / cplxblur=20.0 / qblur=0.5 / ip_ratio=1.30 / aq=1:1.00
Language : Russian
Default : Yes
Forced : Yes
Audio
ID : 2
Format : DTS
Format/Info : Digital Theater Systems
Mode : 16
Format settings, Endianness : Big
Codec ID : A_DTS
Duration : 1h 35mn
Bit rate mode : Constant
Bit rate : 768 Kbps
Channel(s) : 6 channels
Channel positions : Front: L C R, Side: L R, LFE
Sampling rate : 48.0 KHz
Frame rate : 93.750 fps (512 spf)
Bit depth : 16 bits
Compression mode : Lossy
Stream size : 524 MiB (6%)
Title : Original (Rus) / DTS / 6 ch / 768 kbps / 48 kHz
Language : Russian
Default : Yes
Forced : Yes
Menu
00:00:00.000 : en:00:00:00.000
00:03:27.999 : en:00:03:27.999
00:11:32.025 : en:00:11:32.025
00:20:23.013 : en:00:20:23.013
00:29:27.933 : en:00:29:27.933
00:38:56.960 : en:00:38:56.960
00:44:51.981 : en:00:44:51.981
00:53:11.939 : en:00:53:11.939
00:59:53.965 : en:00:59:53.965
01:09:16.903 : en:01:09:16.903
01:20:12.933 : en:01:20:12.933
01:31:19.933 : en:01:31:19.933

Скриншоты

[Профиль] [ЛС]
Кто просматривает тему:

Форум Тема Автор Размер
Action FPS (1st Person) Call of Cthulhu: Dark Corners of the Earth / Зов Ктулху: Тёмные уголки Земли [L] [RUS / RUS] (2006) TorrentFilm 1.2 GB
Фантастика и фэнтези Баштовая Ксения, Иванова Виктория – Тёмный принц 01. Тяжело быть младшим (2015) MP3 Swager 737 MB
Фантастика и фэнтези Баштовая Ксения, Иванова Виктория – Тёмный принц 02. Маленьких все обидеть норовят! (2015) MP3 Swager 876 MB
Фантастика и фэнтези Баштовая Ксения, Иванова Виктория – Тёмный принц 03. Что выросло, то выросло (2016) MP3 Swager 871 MB
Фильмы 2011 года Гайвер 2: Темный герой / Guyver: Dark Hero (Стив Ванг / Steve Wang) [1994, США, Фантастика, боевик, DVDRip] (Специальное полное издание / Special Extended Version) 5 x AVO (Визгунов + Гаври... Russian Mafia 1.78 GB
Мировая классика Джон Голсуорси - Темный цветок [Евгений Терновский, 2014] Magnat 474 MB
Фильмы 2006-2008 года Дом темных бабочек / Tummien Perhosten Koti (Доме Карукоски / Dome Karukoski) [2008, Финляндия, Драма, DVDRip] VO + Sub Rus + Original Fin TorrentFilm 1.53 GB
Фантастика и фэнтези Колентьев Алексей - Самый тёмный час (2015) MP3 Swager 1.01 GB
Показать сообщения:    

Текущее время: Сегодня 18:15

Часовой пояс: GMT



Вы не можете начинать темы
Вы не можете отвечать на сообщения
Вы не можете редактировать свои сообщения
Вы не можете удалять свои сообщения
Вы не можете голосовать в опросах
Вы не можете прикреплять файлы к сообщениям
Вы не можете скачивать файлы