Тёмная сторона растений / Plants Behaving Badly / Die Tricks der Pflanzen (Стив Николалс / Steve Nicholls) [2013, документальный, BDRip 720p]

 
Автор Сообщение

TorrentFilm ®

Пол:

Стаж: 2 года

Сообщений: 7741



Награды: Нет

Торрент-статистика

Создавать темы 12-Янв-2015 00:00

[Цитировать]

Тёмная сторона растений / Трюки растений / Растения обманщики / Растения плохо ведущие себяPlants Behaving Badly / Die Tricks der Pflanzen
Год выпуска: 2013
Страна: Австрия
Студия: Sky Vision
Жанр: документальный
Продолжительность: 00:53:02 + 00:53:07
Перевод: Профессиональный (дублированный) - Видеофильм ТВ
Субтитры: нет
Режиссер: Стив Николалс / Steve Nicholls
Описание: Две группы растений обладают таким интригующим поведением, что полтора века назад они привлекли внимание Чарльза Дарвина. Эти же растения, орхидеи и плотоядные растения, по-прежнему завораживают ученых и сегодня. В двух частях фильма, «Растения плохо ведущие себя» раскрывает мир обмана и предательства, достойный любого вымышленного триллера.
1. Хищные растения / Смертельные ловушки / Убийства и хаос - Carnivorous Plants / Tödliche Fallen
Недавно ученые доказали, что и многие другие растения являются плотоядными, о которых мы когда-либо и не подозревали. Добро пожаловать в мир помидоров убийц и кровавого картофеля. Даже наиболее известные хищные растения - росянка, мухоловка и кувшинчики – представлены с новой стороны объясняющей их поведение.
Растениям-кувшинам иногда необходимо сформировать партнерские отношения с насекомыми. Так личинки комаров, живущие внутри Северной Америки кувшинов, разлагают утонувшую добычу, помогая её переварить. Но на острове Борнео, один гигантский кувшин сформировал замечательных отношениях с одним из видов муравьев. Кувшин отращивает усики, для проживания муравьев, а они, питаясь утонувшими в жидкости кувшина насекомыми, также помогают растения переваривать добычу. За эти годы хищные растения показаны во многих научно-фантастических фильмах, но реальность оказывается гораздо более странной, чем вымысел.
2. Орхидеи / Гениальные соблазны / Секс и обман - Orchids / Geniale Verführungen
Книга Дарвина «О происхождении видов» потрясла научный мир и далеко за его пределами. Тем не менее, его следующая книга, целиком была посвящена орхидеям, в которой он заполнил пробелы и уточнил свои революционные идеи. Орхидеи славятся неземной красотой, растет ли они на высоте сотни метров в туманном лесу или вдоль обочин оживленных пригородных дорог. Но форма их экзотических цветов служит всего лишь одной цели - чтобы соблазнить опылителей. Многие используют секс в качестве приманки, выдавая свой цветок за женскую особь пчелы или осы.
Орхидеи производят тысячи семян, которые настолько малы, что они не содержат запасы для прорастания. Они могут прорасти только с помощью конкретных видов грибов в почве. В прошлом, это создало проблемы выращивания орхидеи из семян, сейчас эта проблема решается в высокотехнологичных лабораториях. Это означает, что некоторые из самых редких растений могут быть вновь высажены в местах своего бывшего произрастания, но эти проекты осуществляются в таком секретности, что напоминают эпизоды из шпионского фильма.
Доп. информация: Раздача от DeTorquemada.
Тип релиза: BDRip 720p
Контейнер: MKV
Видео: MPEG-4 AVC, 1280x720 (16:9), 25.000 fps, 6470-7379 kbps
Аудио: Russian AC3 2.0, 48KHz, 16-bit, 192 Kbps
Аудио : English DTS 2.0, 48 kHz, 16-bit, 768 kbps
Навигация по главам: есть

Сэмпл

MediaInfo

General
Unique ID : 217326299089875917661479477453704527828 (0xA37F85D074360FFCAE834F208531FFD4)
Complete name : D:\Die.Tricks.der.Pflanzen.2013.BluRay.720p.Rus.Eng.HDCLUB\Geniale.Verfuhrungen.2013.720p.BluRay.Rus.Eng.HDCLUB.mkv
Format : Matroska
Format version : Version 4 / Version 2
File size : 2.81 GiB
Duration : 53mn 2s
Overall bit rate : 7 581 Kbps
Movie name : Create by DeTorquemada for HDCLUB
Encoded date : UTC 2015-01-10 12:42:18
Writing application : mkvmerge v7.2.0 ('On Every Street') 64bit built on Sep 13 2014 15:52:10
Writing library : libebml v1.3.0 + libmatroska v1.4.1
Video
ID : 1
Format : AVC
Format/Info : Advanced Video Codec
Format profile : High@L4.1
Format settings, CABAC : Yes
Format settings, ReFrames : 7 frames
Codec ID : V_MPEG4/ISO/AVC
Duration : 53mn 2s
Bit rate : 6 470 Kbps
Width : 1 280 pixels
Height : 720 pixels
Display aspect ratio : 16:9
Frame rate mode : Constant
Frame rate : 25.000 fps
Color space : YUV
Chroma subsampling : 4:2:0
Bit depth : 8 bits
Scan type : Progressive
Bits/(Pixel*Frame) : 0.281
Stream size : 2.40 GiB (85%)
Title : Episode 2: Orchids / Geniale Verführungen / Эпизод 2: Орхидеи / Гениальные соблазны / Секс и обман (2013) - Realise for HDCLUB
Writing library : x264 core 138 r2358 9e941d1
Encoding settings : cabac=1 / ref=7 / deblock=1:-3:-3 / analyse=0x3:0x113 / me=umh / subme=10 / psy=1 / psy_rd=1.00:0.00 / mixed_ref=1 / me_range=48 / chroma_me=1 / trellis=2 / 8x8dct=1 / cqm=0 / deadzone=21,11 / fast_pskip=1 / chroma_qp_offset=-2 / threads=6 / lookahead_threads=1 / sliced_threads=0 / nr=0 / decimate=1 / interlaced=0 / bluray_compat=0 / constrained_intra=0 / bframes=3 / b_pyramid=2 / b_adapt=2 / b_bias=0 / direct=1 / weightb=1 / open_gop=0 / weightp=2 / keyint=250 / keyint_min=25 / scenecut=40 / intra_refresh=0 / rc_lookahead=65 / rc=crf / mbtree=0 / crf=17.0 / qcomp=0.60 / qpmin=0 / qpmax=69 / qpstep=4 / vbv_maxrate=50000 / vbv_bufsize=62500 / crf_max=0.0 / nal_hrd=none / ip_ratio=1.40 / pb_ratio=1.30 / aq=1:0.80
Language : English
Default : Yes
Forced : No
Matrix coefficients : BT.709
Color range : Limited
Audio #1
ID : 2
Format : AC-3
Format/Info : Audio Coding 3
Mode extension : CM (complete main)
Format settings, Endianness : Big
Codec ID : A_AC3
Duration : 53mn 2s
Bit rate mode : Constant
Bit rate : 192 Kbps
Channel(s) : 2 channels
Channel positions : Front: L R
Sampling rate : 48.0 KHz
Bit depth : 16 bits
Compression mode : Lossy
Stream size : 72.8 MiB (3%)
Title : 48KHz/16-bit, АС3, 2.0 (L,R) ch, 192 kbps - Профессиональный oдноголосый, Видеофильм ТВ
Language : Russian
Default : Yes
Forced : No
Audio #2
ID : 3
Format : DTS
Format/Info : Digital Theater Systems
Mode : 16
Format settings, Endianness : Big
Codec ID : A_DTS
Duration : 53mn 2s
Bit rate mode : Constant
Bit rate : 768 Kbps
Channel(s) : 2 channels
Channel positions : Front: L R
Sampling rate : 48.0 KHz
Bit depth : 24 bits
Compression mode : Lossy
Stream size : 291 MiB (10%)
Title : 48KHz/24-bit, DTS, 2.0 (L,R) ch, 768 kbps
Language : English
Default : No
Forced : No
Menu
00:00:00.000 : en:
00:09:56.079 : en:
00:19:03.119 : en:
00:27:03.680 : en:
00:37:14.279 : en:
00:46:28.920 : en:
00:53:01.279 : en:

Скриншоты

[Профиль] [ЛС]
Кто просматривает тему:

Форум Тема Автор Размер
RPG King's Bounty: Темная Сторона / King's Bounty: Dark Side. Premium Edition (2014) PC | Zithylord 1.8 GB
Фильмы 2011 года Бункер / Тёмная сторона / La cara oculta (2011) BDRip-AVC от MediaClub | P, L, L1 sergej644 2.5 GB
Фантастика, фэнтези Джо Аберкромби - Первый Закон (3 книги) [Темная фэнтези, 2008-2011, FB2] Garik014 4 MB
Зарубежные Доктор Кто. Темная вода + Смерть на небесах. в 3Д / Doctor Who. Dark Water + Death in Heaven. 3D (Рэйчел Талалэй / Rachel Talalay) [2015, Научная фантастика., BDrip] Half OverUnder / Вертикал... TorrentFilm 12.75 GB
Приключения, Квесты, Логические Королевский квест. Темная башня. Коллекционное издание (2015) PC достали все 639 MB
Мировая классика Сутер Мартин - Темная сторона Луны (2015) MP3 Swager 361 MB
Ужасы и мистика Темная башня 4.5: Ветер сквозь замочную скважину (Кинг Стивен) [2014, Мистика, аудиоспектакль, MP3, 256kbps, Р. Волков, И. Волкова, Р. Волкова, О. Булдаков, Н. Петров] Magnat 1.17 GB
Фильмы 2015 года Темная бухта / Dark Cove (2015) HDRip | L1 BOSS 1.36 GB
Показать сообщения:    

Текущее время: Сегодня 12:48

Часовой пояс: GMT



Вы не можете начинать темы
Вы не можете отвечать на сообщения
Вы не можете редактировать свои сообщения
Вы не можете удалять свои сообщения
Вы не можете голосовать в опросах
Вы не можете прикреплять файлы к сообщениям
Вы не можете скачивать файлы