Тёмная сторона Луны / Die dunkle Seite des Mondes (2015) BDRip 1080p | L, A

 
Автор Сообщение

достали все ®

Пол:

Стаж: 1 год 8 месяцев

Сообщений: 6515



Награды: 12 (Подробнее)

Mega Seeder 5 (Количество: 1) Top Releaser 2 (Количество: 1) Mega Releaser 3 (Количество: 1)
Торрент-статистика

Создавать темы 20-Авг-2016 12:49

[Цитировать]

Информация о фильме
Название: Тёмная сторона Луны
Оригинальное название: Die dunkle Seite des Mondes
Год выхода: 2015
Жанр: Триллер
Режиссер: Штефан Рик
В ролях: Юрген Прохнов, Мориц Бляйбтрой, Нора фон Вальдштеттен, Андре Хеннике, Сабина Россбах, Дорис Шретцмайер, Марко Лоренцини, Йен Т. Дикинсон, Люк Фейт, Ив Роберт Шааф, Евгения Анселен, Жермен Вагнер, Люк Спада
О фильме:
Фильм рассказывает историю успешного франкфуртского бизнес-адвоката Урса Бланка. Престижный адвокат пользуется большим вниманием и уважением в высшем финансовом обществе. Но несмотря на профессиональный успех и личное счастье в супружеской жизни, Урс Бланк не испытывает никакого удовлетворения. К всему этому самоубийство бизнес-партнера окончательно выбивает его из колеи. В один прекрасный день в его жизни появляется девушка Люсиль, к которой он чувствует некое магическое притяжение. Девушке удается утянуть молодого мужчину в свой альтернативный мир, предложив ему попробовать галлюциногенные грибы и избавится от проблем. Путешествие в призрачный мир фантазий, который древние ацтеки называли королевской тропой просветления, несет за собой далеко идущие последствия. Урс Бланк перестает контролировать себя и свои инстинкты. Наружу выплескивается агрессивное животное, не гнушающееся даже перед убийством. Бланк срочно нуждается в противоядии от дикой агрессии, и для того чтобы найти его, он совершает отчаянный побег в лес. Однако неприятности Урса Бланка оказываются как нельзя кстати для его недругов. Пий Отт, другой бизнес-партнер Урса, уже давно мечтает избавиться от него.

Страна: Германия, Люксембург
Студия: Port au Prince Film & Kultur Produktion, Iris Productions, Südwestrundfunk (SWR)
Продолжительность: 01:37:57
Перевод: Любительский многоголосый закадровый, авторский
Файл
Кодек: h.264
Качество: BDRip 1080p
Видео: MPEG-4 AVC, 7500 Кбит/с, 1920x800, 24.000 кадр/с
Звук:
Русский (AC3, 2 ch, 192 Кбит/с) / Любительский многоголосый (ViruseProject)
Русский (DTS, 6 ch, 1509 Кбит/с) / Авторский (Ю. Живов)
Английский (DTS, 6 ch, 1509 Кбит/с)
Субтитры: Нет
Семпл

О релизе

Автор релиза - Silverok, За BDRemux спасибо ylnian
Заказ перевода у Юрия Живова (июль 2016) - ylnian
За сборку дороги спасибо rammzez
Профессиональный многоголосый перевод от ViruseProject: Елена Емельянова, Дмитрий Кравченко, Владислав Данилов
В многоголосой дорожке присутствует реклама в интервале 00:00:50 - 00:01:00
Сохранены оригинальные главы как на Blu-ray

MI

General
Unique ID : 240781521626987342334220619668388818286 (0xB524D591C74D78799C960C807DFFAD6E)
Complete name : D:uTorrentTjemnaja.storona.luny.2015.BDRip.1080p.MediaClub.mkv
Format : Matroska
Format version : Version 4 / Version 2
File size : 7.32 GiB
Duration : 1 h 37 min
Overall bit rate : 10.7 Mb/s
Encoded date : UTC 2016-08-20 05:40:26
Writing application : mkvmerge v9.3.1 ('Mask Machine') 64bit
Writing library : libebml v1.3.4 + libmatroska v1.4.5
Video
ID : 1
Format : AVC
Format/Info : Advanced Video Codec
Format profile : High@L4.1
Format settings, CABAC : Yes
Format settings, ReFrames : 5 frames
Codec ID : V_MPEG4/ISO/AVC
Duration : 1 h 37 min
Bit rate : 7 500 kb/s
Width : 1 920 pixels
Height : 800 pixels
Display aspect ratio : 2.40:1
Frame rate mode : Constant
Frame rate : 24.000 FPS
Color space : YUV
Chroma subsampling : 4:2:0
Bit depth : 8 bits
Scan type : Progressive
Bits/(Pixel*Frame) : 0.203
Stream size : 4.98 GiB (68%)
Title : BDRip by Silverok
Writing library : x264 core 148 r2638 7599210
Encoding settings : cabac=1 / ref=5 / deblock=1:-3:-3 / analyse=0x3:0x113 / me=umh / subme=11 / psy=1 / psy_rd=1.00:0.00 / mixed_ref=1 / me_range=48 / chroma_me=1 / trellis=2 / 8x8dct=1 / cqm=0 / deadzone=21,11 / fast_pskip=0 / chroma_qp_offset=-2 / threads=12 / lookahead_threads=3 / sliced_threads=0 / nr=0 / decimate=0 / interlaced=0 / bluray_compat=0 / constrained_intra=0 / bframes=12 / b_pyramid=2 / b_adapt=2 / b_bias=0 / direct=3 / weightb=1 / open_gop=0 / weightp=2 / keyint=240 / keyint_min=24 / scenecut=40 / intra_refresh=0 / rc_lookahead=40 / rc=2pass / mbtree=0 / bitrate=7500 / ratetol=1.0 / qcomp=0.60 / qpmin=0 / qpmax=69 / qpstep=4 / cplxblur=20.0 / qblur=0.5 / vbv_maxrate=62500 / vbv_bufsize=78125 / nal_hrd=none / filler=0 / ip_ratio=1.40 / pb_ratio=1.30 / aq=1:1.00
Default : Yes
Forced : No
Audio #1
ID : 2
Format : AC-3
Format/Info : Audio Coding 3
Mode extension : CM (complete main)
Format settings, Endianness : Big
Codec ID : A_AC3
Duration : 1 h 37 min
Bit rate mode : Constant
Bit rate : 192 kb/s
Channel(s) : 2 channels
Channel positions : Front: L R
Sampling rate : 48.0 kHz
Frame rate : 31.250 FPS (1536 spf)
Compression mode : Lossy
Stream size : 135 MiB (2%)
Title : Профессиональный многоголосый закадровый (ViruseProject)
Language : Russian
Default : Yes
Forced : No
Audio #2
ID : 3
Format : DTS
Format/Info : Digital Theater Systems
Mode : 16
Format settings, Endianness : Big
Codec ID : A_DTS
Duration : 1 h 37 min
Bit rate mode : Constant
Bit rate : 1 509 kb/s
Channel(s) : 6 channels
Channel positions : Front: L C R, Side: L R, LFE
Sampling rate : 48.0 kHz
Frame rate : 93.750 FPS (512 spf)
Bit depth : 24 bits
Compression mode : Lossy
Stream size : 1.03 GiB (14%)
Title : Авторский (Юрий Живов)
Language : Russian
Default : No
Forced : No
Audio #3
ID : 4
Format : DTS
Format/Info : Digital Theater Systems
Mode : 16
Format settings, Endianness : Big
Codec ID : A_DTS
Duration : 1 h 37 min
Bit rate mode : Constant
Bit rate : 1 509 kb/s
Channel(s) : 6 channels
Channel positions : Front: L C R, Side: L R, LFE
Sampling rate : 48.0 kHz
Frame rate : 93.750 FPS (512 spf)
Bit depth : 24 bits
Compression mode : Lossy
Stream size : 1.03 GiB (14%)
Language : German
Default : No
Forced : No
Menu
00:00:00.000 : en:
00:07:24.915 : en:
00:15:15.916 : en:
00:21:47.916 : en:
00:29:28.916 : en:
00:36:43.916 : en:
00:44:56.916 : en:
00:52:52.916 : en:
00:59:24.916 : en:
01:07:02.916 : en:
01:13:15.916 : en:
01:21:04.625 : en:
01:33:05.916 : en:
01:37:54.625 : en:

Скриншоты

Релиз от: Silverok
[Профиль] [ЛС]
Кто просматривает тему:

Форум Тема Автор Размер
RPG King's Bounty: Темная Сторона / King's Bounty: Dark Side. Premium Edition (2014) PC | Zithylord 1.8 GB
Фильмы 2011 года Бункер / Тёмная сторона / La cara oculta (2011) BDRip-AVC от MediaClub | P, L, L1 sergej644 2.5 GB
Фантастика, фэнтези Джо Аберкромби - Первый Закон (3 книги) [Темная фэнтези, 2008-2011, FB2] Garik014 4 MB
Зарубежные Доктор Кто. Темная вода + Смерть на небесах. в 3Д / Doctor Who. Dark Water + Death in Heaven. 3D (Рэйчел Талалэй / Rachel Talalay) [2015, Научная фантастика., BDrip] Half OverUnder / Вертикал... TorrentFilm 12.75 GB
Приключения, Квесты, Логические Королевский квест. Темная башня. Коллекционное издание (2015) PC достали все 639 MB
Мировая классика Сутер Мартин - Темная сторона Луны (2015) MP3 Swager 361 MB
Ужасы и мистика Темная башня 4.5: Ветер сквозь замочную скважину (Кинг Стивен) [2014, Мистика, аудиоспектакль, MP3, 256kbps, Р. Волков, И. Волкова, Р. Волкова, О. Булдаков, Н. Петров] Magnat 1.17 GB
Фильмы 2015 года Темная бухта / Dark Cove (2015) HDRip | L1 BOSS 1.36 GB
Показать сообщения:    

Текущее время: Сегодня 20:04

Часовой пояс: GMT



Вы не можете начинать темы
Вы не можете отвечать на сообщения
Вы не можете редактировать свои сообщения
Вы не можете удалять свои сообщения
Вы не можете голосовать в опросах
Вы не можете прикреплять файлы к сообщениям
Вы не можете скачивать файлы