Тёмная материя / Dark Matter (2015) WEB-DLRip (сезон 1, серии 1-13 из 13) BaibaKo

 
Автор Сообщение

достали все ®

Пол:

Стаж: 1 год 8 месяцев

Сообщений: 6545



Награды: 12 (Подробнее)

Top Releaser 4 (Количество: 1) Mega Releaser 1 (Количество: 1) Mega Seeder 2 (Количество: 1)
Торрент-статистика

Создавать темы 31-Авг-2015 10:17

[Цитировать]

-Тёмная материя / Dark Matter (2015) WEB-DLRip (сезон 1, серии 1-13 из 13)- Производство: Канада
Жанр: фантастика
Режиссер: Рон Мерфи, Т.Дж. Скотт, Паоло Барзмен
Актеры: Марк Бендавид, Мелисса О’Нил, Энтони Лемке, Алекс Маллари мл., Джоделль Ферланд, Роджер Р. Кросс, Зои Палмер, Дэвид Хьюлетт, Джессика Сайпос, Расселл Юэнь и др.
Описание:
Экипаж заброшенного космического корабля пробуждается от анабиоза, без воспоминаний о том, кто они и как они поднялись на борт. Сталкиваясь с угрозами на каждом шагу, они должны работать вместе, чтобы выжить. Их путешествие наполнено местью, предательством и скрытыми тайнами.

Дата мировой премьеры: 12 июня 2015
Продолжительность: ~00:43:00 серия
Качество видео: WEB-DLRip
Перевод: Многоголосый закадровый, профессиональный - BaibaKo
Автор перевода: Янина Галицкая
Озвучка: Елена Григорьева, Юлия Котурбаш, Олекса Мельник и Артемий Мирон
Видео: XviD, 720x400 (16:9), ~1860 Kb/s
Аудио Rus: MPEG Layer 3, 48,0 kHz, 2 ch, 192 kb/s — многоголосый закадровый
Аудио Eng: MPEG Layer 3, 48,0 kHz, 2 ch, 192 kb/s — оригинал

MediaInfo

Общее
Полное имя : D:\Тёмная материя (сезон 1) Dark Matter (2015) WEB-DLRip - BaibaKo\Dark.Matter.s01e01.WEB-DLRip.XviD.Rus.Eng.BaibaKo.tv.avi
Формат : AVI
Формат/Информация : Audio Video Interleave
Размер файла : 700 Мбайт
Продолжительность : 43 м.
Общий поток : 2259 Кбит/сек
Программа кодирования : VirtualDubMod 1.5.10.2 (build 2540/release)
Библиотека кодирования : VirtualDubMod build 2540/release
Видео
Идентификатор : 0
Формат : MPEG-4 Visual
Профиль формата : Advanced Simple@L5
Параметр BVOP формата : 2
Параметр QPel формата : Нет
Параметр GMC формата : Без точки перехода
Параметр матрицы формата : Default (H.263)
Идентификатор кодека : XVID
Идентификатор кодека/Подсказка : XviD
Продолжительность : 43 м.
Битрейт : 1861 Кбит/сек
Ширина : 720 пикселей
Высота : 400 пикселей
Соотношение сторон : 16:9
Частота кадров : 23,976 кадра/сек
Цветовое пространство : YUV
Субдискретизация насыщенности : 4:2:0
Битовая глубина : 8 бит
Тип развёртки : Прогрессивная
Метод сжатия : С потерями
Бит/(Пиксели*Кадры) : 0.270
Размер потока : 577 Мбайт (82%)
Библиотека кодирования : XviD 1.2.1 (UTC 2008-12-04)
Аудио #1
Идентификатор : 1
Формат : MPEG Audio
Версия формата : Version 1
Профиль формата : Layer 3
Режим : Joint stereo
Расширение режима : MS Stereo
Идентификатор кодека : 55
Идентификатор кодека/Подсказка : MP3
Продолжительность : 43 м.
Вид битрейта : Постоянный
Битрейт : 192 Кбит/сек
Каналы : 2 канала
Частота : 48,0 КГц
Метод сжатия : С потерями
Размер потока : 59,5 Мбайт (8%)
Выравнивание : Соединение по промежуткам
Продолжительность промежутка : 42 мс. (1,00 видеокадр)
Время предзагрузки промежутка : 504 мс.
Аудио #2
Идентификатор : 2
Формат : MPEG Audio
Версия формата : Version 1
Профиль формата : Layer 3
Режим : Joint stereo
Расширение режима : MS Stereo
Идентификатор кодека : 55
Идентификатор кодека/Подсказка : MP3
Продолжительность : 43 м.
Вид битрейта : Постоянный
Битрейт : 192 Кбит/сек
Каналы : 2 канала
Частота : 48,0 КГц
Метод сжатия : С потерями
Размер потока : 59,5 Мбайт (8%)
Выравнивание : Соединение по промежуткам
Продолжительность промежутка : 42 мс. (1,00 видеокадр)
Время предзагрузки промежутка : 504 мс.
Скриншоты:
[/url]
[Профиль] [ЛС]
Кто просматривает тему:

Форум Тема Автор Размер
RPG King's Bounty: Темная Сторона / King's Bounty: Dark Side. Premium Edition (2014) PC | Zithylord 1.8 GB
Фильмы 2011 года Бункер / Тёмная сторона / La cara oculta (2011) BDRip-AVC от MediaClub | P, L, L1 sergej644 2.5 GB
Фантастика, фэнтези Джо Аберкромби - Первый Закон (3 книги) [Темная фэнтези, 2008-2011, FB2] Garik014 4 MB
Зарубежные Доктор Кто. Темная вода + Смерть на небесах. в 3Д / Doctor Who. Dark Water + Death in Heaven. 3D (Рэйчел Талалэй / Rachel Talalay) [2015, Научная фантастика., BDrip] Half OverUnder / Вертикал... TorrentFilm 12.75 GB
Приключения, Квесты, Логические Королевский квест. Темная башня. Коллекционное издание (2015) PC достали все 639 MB
Мировая классика Сутер Мартин - Темная сторона Луны (2015) MP3 Swager 361 MB
Ужасы и мистика Темная башня 4.5: Ветер сквозь замочную скважину (Кинг Стивен) [2014, Мистика, аудиоспектакль, MP3, 256kbps, Р. Волков, И. Волкова, Р. Волкова, О. Булдаков, Н. Петров] Magnat 1.17 GB
Фильмы 2015 года Темная бухта / Dark Cove (2015) HDRip | L1 BOSS 1.36 GB
Показать сообщения:    

Текущее время: Сегодня 14:35

Часовой пояс: GMT



Вы не можете начинать темы
Вы не можете отвечать на сообщения
Вы не можете редактировать свои сообщения
Вы не можете удалять свои сообщения
Вы не можете голосовать в опросах
Вы не можете прикреплять файлы к сообщениям
Вы не можете скачивать файлы