Тёмная долина / Das finstere Tal (2014) BDRip 720p | Лицензия

 
Автор Сообщение

sergej644 ®

Пол:

Стаж: 4 года 11 месяцев

Сообщений: 6038

Откуда: Soviet Union



Награды: Нет

Торрент-статистика

Создавать темы 08-Фев-2015 16:26

[Цитировать]

Информация о фильме
Название: Тёмная долина
Оригинальное название: Das finstere Tal / The Dark Valley
Год выхода: 2014
Жанр: вестерн
Режиссер: Андреас Прохазка
В ролях: Сэм Райли, Тобиас Моретти, Хельмут Хеуслер, Мартин Лойтгеб, Йоханнес Николусси, Клеменс Шик, Флориан Брюкнер, Ганс-Михаэль Реберг, Эрвин Штайнхауэр, Франц Ксавер Брюкнер
О фильме: Тайными путями одинокий всадник пробирается в маленький городок высоко в Альпах. Никто не знает, откуда прибыл незнакомец и чего он хочет. Но в одном жители городка уверены — они не хотят, чтобы он оставался здесь.

Выпущено: Австрия, Германия / Allegro Film, X-Filme Creative Pool
Продолжительность: 01:54:44
Озвучивание: Профессиональное (многоголосое) [лицензия]-Файл
Формат: MKV
Качество: BDRip 720p
Видео: MPEG-4 AVC, 5400 Кбит/с, 1280x544
Аудио: Русский (AC3, 6 ch, 384 Кбит/с), немецкий (AC3, 6 ch, 640 Кбит/с)
Размер: 5.14 ГБ

Награды:

Bavarian Film Awards 2014 - "Лучший актёр" (Тобиас Моретти), "Лучший режиссёр" (Андреас Прохазка)
Diagonale, Austria 2014 - "Лучшая операторская работа в художественном фильме" (Томас Киенаст)
Festróia - Tróia International Film Festival 2014 - "Лучшая операторская работа" (Томас Киенаст, Allegro Film)
German Camera Award 2014 - "Лучший художественный фильм"
German Film Awards 2014 - "Лучшая мужская роль второго плана" (Тобиас Моретти), "Лучшая операторская работа" (Томас Киенаст), "Лучший дизайнер" (Клаус-Рудольф Амлер), "Лучший дизайн костюмов" (Наташа Куртиус-Носс), "Лучший макияж" (Роман Браунхофер, Елена Ланг), "Лучший саундтрек" (Матиас Вебер), "Лучший звук" (Чангиз Чарох, Кристоф Эбхард, Дитмар Засон), "Выдающийся художественный фильм" (Стефан Арндт, Гельмут Грассер, X-Filme Creative Pool)
Puchon International Fantastic Film Festival 2014 - "Режиссёр" (Андреас Прохазка)
Romy Gala, Austria 2014 - "Лучшая операторская работа" (Томас Киенаст)
----

MEdia Info

Complete name The.Dark.Valley.2014.BDRip720p.mkv
Format : Matroska
Format version : Version 2
File size : 5.14 GiB
Duration : 1h 54mn
Overall bit rate : 6 417 Kbps
Movie name : The Dark Valley 2014
Encoded date : UTC 2014-09-15 18:32:51
Writing application : mkvmerge v5.8.0 ('No Sleep / Pillow') built on Sep 2 2012 15:37:04
Writing library : libebml v1.2.3 + libmatroska v1.3.0
Video
ID : 1
Format : AVC
Format/Info : Advanced Video Codec
Format profile : High@L4.1
Format settings, CABAC : Yes
Format settings, ReFrames : 12 frames
Codec ID : V_MPEG4/ISO/AVC
Duration : 1h 54mn
Bit rate : 5 400 Kbps
Width : 1 280 pixels
Height : 544 pixels
Display aspect ratio : 2.35:1
Frame rate mode : Constant
Frame rate : 24.000 fps
Color space : YUV
Chroma subsampling : 4:2:0
Bit depth : 8 bits
Scan type : Progressive
Bits/(Pixel*Frame) : 0.323
Stream size : 4.22 GiB (82%)
Writing library : x264 core 142 r2479kMod dd79a61
Encoding settings : cabac=1 / ref=12 / deblock=1:-3:-3 / analyse=0x3:0x133 / me=umh / subme=11 / psy=1 / fade_compensate=0.00 / psy_rd=1.08:0.00 / mixed_ref=1 / me_range=24 / chroma_me=1 / trellis=2 / 8x8dct=1 / cqm=0 / deadzone=21,11 / fast_pskip=0 / chroma_qp_offset=-2 / threads=6 / lookahead_threads=1 / sliced_threads=0 / nr=0 / decimate=0 / interlaced=0 / bluray_compat=0 / constrained_intra=0 / fgo=0 / bframes=11 / b_pyramid=2 / b_adapt=2 / b_bias=0 / direct=3 / weightb=1 / open_gop=0 / weightp=2 / keyint=250 / keyint_min=24 / scenecut=40 / intra_refresh=0 / rc_lookahead=0 / rc=2pass / mbtree=0 / bitrate=5400 / ratetol=1.0 / qcomp=0.70 / qpmin=0 / qpmax=69 / qpstep=4 / cplxblur=20.0 / qblur=0.5 / vbv_maxrate=38000 / vbv_bufsize=30000 / nal_hrd=none / filler=0 / ip_ratio=1.40 / pb_ratio=1.30 / aq=1:0.68
Language : English
Default : Yes
Forced : No
Color primaries : BT.709
Transfer characteristics : BT.709
Matrix coefficients : BT.709
Audio #1
ID : 2
Format : AC-3
Format/Info : Audio Coding 3
Mode extension : CM (complete main)
Format settings, Endianness : Big
Codec ID : A_AC3
Duration : 1h 54mn
Bit rate mode : Constant
Bit rate : 384 Kbps
Channel(s) : 6 channels
Channel positions : Front: L C R, Side: L R, LFE
Sampling rate : 48.0 KHz
Bit depth : 16 bits
Compression mode : Lossy
Stream size : 315 MiB (6%)
Title : [VO] Lord32x
Language : Russian
Default : Yes
Forced : No
Audio #2
ID : 3
Format : AC-3
Format/Info : Audio Coding 3
Mode extension : CM (complete main)
Format settings, Endianness : Big
Codec ID : A_AC3
Duration : 1h 54mn
Bit rate mode : Constant
Bit rate : 640 Kbps
Channel(s) : 6 channels
Channel positions : Front: L C R, Side: L R, LFE
Sampling rate : 48.0 KHz
Bit depth : 16 bits
Compression mode : Lossy
Stream size : 525 MiB (10%)
Language : German
Default : No
Forced : No
Menu
00:00:00.000 : en:00:00:00.000
00:09:40.250 : en:00:09:40.250
00:20:09.708 : en:00:20:09.708
00:28:27.000 : en:00:28:27.000
00:39:48.625 : en:00:39:48.625
00:49:15.000 : en:00:49:15.000
00:56:12.833 : en:00:56:12.833
01:03:55.542 : en:01:03:55.542
01:08:34.083 : en:01:08:34.083
01:21:32.958 : en:01:21:32.958
01:33:25.708 : en:01:33:25.708
01:49:57.333 : en:01:49:57.333
---

Скриншоты

--- -

Скриншоты

-
[Профиль] [ЛС]
Кто просматривает тему:

Форум Тема Автор Размер
RPG King's Bounty: Темная Сторона / King's Bounty: Dark Side. Premium Edition (2014) PC | Zithylord 1.8 GB
Фильмы 2011 года Бункер / Тёмная сторона / La cara oculta (2011) BDRip-AVC от MediaClub | P, L, L1 sergej644 2.5 GB
Фантастика, фэнтези Джо Аберкромби - Первый Закон (3 книги) [Темная фэнтези, 2008-2011, FB2] Garik014 4 MB
Зарубежные Доктор Кто. Темная вода + Смерть на небесах. в 3Д / Doctor Who. Dark Water + Death in Heaven. 3D (Рэйчел Талалэй / Rachel Talalay) [2015, Научная фантастика., BDrip] Half OverUnder / Вертикал... TorrentFilm 12.75 GB
Приключения, Квесты, Логические Королевский квест. Темная башня. Коллекционное издание (2015) PC достали все 639 MB
Мировая классика Сутер Мартин - Темная сторона Луны (2015) MP3 Swager 361 MB
Ужасы и мистика Темная башня 4.5: Ветер сквозь замочную скважину (Кинг Стивен) [2014, Мистика, аудиоспектакль, MP3, 256kbps, Р. Волков, И. Волкова, Р. Волкова, О. Булдаков, Н. Петров] Magnat 1.17 GB
Фильмы 2015 года Темная бухта / Dark Cove (2015) HDRip | L1 BOSS 1.36 GB
Показать сообщения:    

Текущее время: Сегодня 12:32

Часовой пояс: GMT



Вы не можете начинать темы
Вы не можете отвечать на сообщения
Вы не можете редактировать свои сообщения
Вы не можете удалять свои сообщения
Вы не можете голосовать в опросах
Вы не можете прикреплять файлы к сообщениям
Вы не можете скачивать файлы