Тёмная долина / Das finstere Tal (2014) BDRip 720p | лицензия

 
Автор Сообщение

sergej644 ®

Пол:

Стаж: 4 года 11 месяцев

Сообщений: 6046

Откуда: Soviet Union



Награды: Нет

Торрент-статистика

Создавать темы 21-Окт-2014 20:58

[Цитировать]

--Тёмная долина / Das finstere Tal
-Страна: Австрия, Германия / Allegro Film, X-Filme Creative Pool
Жанр: драма, вестерн, боевик
Год выпуска: 2014
Продолжительность: 01:54:44
Перевод: Профессиональный (многоголосый закадровый) |Позитив по заказу РР|
Cубтитры: русские, английские, немецкие
Оригинальная аудиодорожка: немецкий
Режиссер: Андреас Прохазка / Andreas Prochaska
В ролях: Сэм Райли, Тобиас Моретти, Хельмут Хеуслер, Мартин Лойтгеб, Йоханнес Николусси, Клеменс Шик, Флориан Брюкнер, Ганс-Михаэль Реберг, Эрвин Штайнхауэр, Франц Ксавер Брюкнер...
Описание: Фильм вестерн «Тёмная долина» вовлекает зрителя в историю, которая разворачивается высоко в Альпийских горах. Потаенными тропами одинокий всадник пробирается в небольшую деревню, которая спряталась где-то между вершин. Никому не известно, откуда прибыл этот человек и что ему здесь надо, но все явно хотят, чтобы Грейдер, как зовут незнакомца, поскорее ушел. Грейдер, который выдает себя за фотографа, поселяется у вдовы Гардер и ее юной дочери Луци, у которой вскоре должна состояться свадьба с Лукасом, пребывает в страхе из-за этого события, так как свадьбы в этой деревне связаны со страшной традицией. А тот, кто попытается возражать, будет подвергнут безжалостному наказанию. После того как снег отрезает деревню от остального мира, и редкий солнечный луч достигает долины, события начинают приобретать мрачный оборот.

Качество: BDRip 720p
Формат: MKV
Видео: 1280x544 (2.35:1), MPEG-4 AVC, 3789 kbps / 24,000 fps / High Profile 4.1 / bit/pix=0.227
Аудио 1: Russian: 48 kHz, AC3, 3/2 (L,C,R,l,r) + LFE ch, 640.00 kbps constant
Аудио 2: German: 48 kHz/24-bit, DTS 5.1, ~1536.00 kbps avg |оригинал|
Формат субтитров: SoftSub (srt)
Дополнительно: Фильм разбит на главы, как на оригинальном Blu-ray диске.
Раздача от:

MediaInfo

Общее
Полное имя : Das.Finstere.Tal.2014.720p.BluRay.Rus.Ger.HDClub.mkv
Формат : Matroska
Версия формата : Version 2
Размер файла : 4,86 Гбайт
Продолжительность : 1 ч. 54 м.
Общий поток : 6058 Кбит/сек
Название фильма : Das Finstere Tal (2014) - Release for HDCLUB by LexxBlack
Дата кодирования : UTC 2014-10-20 05:03:05
Программа кодирования : mkvmerge v7.2.0 ('On Every Street') 32bit built on Sep 13 2014 15:42:11
Библиотека кодирования : libebml v1.3.0 + libmatroska v1.4.1
Видео
Идентификатор : 1
Формат : AVC
Формат/Информация : Advanced Video Codec
Профиль формата : High@L4.1
Параметр CABAC формата : Да
Параметр ReFrames формата : 12 кадров
Идентификатор кодека : V_MPEG4/ISO/AVC
Продолжительность : 1 ч. 54 м.
Битрейт : 3789 Кбит/сек
Ширина : 1280 пикселей
Высота : 544 пикселя
Соотношение сторон : 2,35:1
Режим частоты кадров : Постоянный
Частота кадров : 24,000 кадра/сек
Цветовое пространство : YUV
Субдискретизация насыщенности : 4:2:0
Битовая глубина : 8 бит
Тип развёртки : Прогрессивная
Бит/(Пиксели*Кадры) : 0.227
Размер потока : 3,04 Гбайт (63%)
Заголовок : Release for HDClub
Библиотека кодирования : x264 core 142 r2479 dd79a61
Настройки программы : cabac=1 / ref=12 / deblock=1:-3:-3 / analyse=0x3:0x113 / me=umh / subme=10 / psy=1 / psy_rd=1.05:0.00 / mixed_ref=1 / me_range=48 / chroma_me=1 / trellis=2 / 8x8dct=1 / cqm=0 / deadzone=21,11 / fast_pskip=0 / chroma_qp_offset=-3 / threads=12 / lookahead_threads=3 / sliced_threads=0 / nr=0 / decimate=1 / interlaced=0 / bluray_compat=0 / constrained_intra=0 / bframes=11 / b_pyramid=2 / b_adapt=2 / b_bias=0 / direct=1 / weightb=1 / open_gop=0 / weightp=2 / keyint=250 / keyint_min=23 / scenecut=40 / intra_refresh=0 / rc_lookahead=60 / rc=crf / mbtree=1 / crf=17.5 / qcomp=0.75 / qpmin=0 / qpmax=69 / qpstep=4 / vbv_maxrate=62500 / vbv_bufsize=78125 / crf_max=0.0 / nal_hrd=none / filler=0 / ip_ratio=1.40 / aq=1:1.00
Язык : German
Default : Да
Forced : Нет
Аудио #1
Идентификатор : 2
Формат : AC-3
Формат/Информация : Audio Coding 3
Расширение режима : CM (complete main)
Параметр Endianness формата : Big
Идентификатор кодека : A_AC3
Продолжительность : 1 ч. 54 м.
Вид битрейта : Постоянный
Битрейт : 640 Кбит/сек
Каналы : 6 каналов
Расположение каналов : Front: L C R, Side: L R, LFE
Частота : 48,0 КГц
Битовая глубина : 16 бит
Метод сжатия : С потерями
Размер потока : 525 Мбайт (11%)
Заголовок : MVO - Pozitiv RR
Язык : Russian
Default : Да
Forced : Нет
Аудио #2
Идентификатор : 3
Формат : DTS
Формат/Информация : Digital Theater Systems
Режим : 16
Параметр Endianness формата : Big
Идентификатор кодека : A_DTS
Продолжительность : 1 ч. 54 м.
Вид битрейта : Постоянный
Битрейт : 1509 Кбит/сек
Каналы : 6 каналов
Расположение каналов : Front: L C R, Side: L R, LFE
Частота : 48,0 КГц
Битовая глубина : 16 бит
Метод сжатия : С потерями
Размер потока : 1,21 Гбайт (25%)
Заголовок : Original
Язык : German
Default : Нет
Forced : Нет
Текст #1
Идентификатор : 4
Формат : UTF-8
Идентификатор кодека : S_TEXT/UTF8
Идентификатор кодека/Информация : UTF-8 Plain Text
Язык : Russian
Default : Нет
Forced : Нет
Текст #2
Идентификатор : 5
Формат : UTF-8
Идентификатор кодека : S_TEXT/UTF8
Идентификатор кодека/Информация : UTF-8 Plain Text
Язык : English
Default : Нет
Forced : Нет
Текст #3
Идентификатор : 6
Формат : UTF-8
Идентификатор кодека : S_TEXT/UTF8
Идентификатор кодека/Информация : UTF-8 Plain Text
Язык : German
Default : Нет
Forced : Нет
Меню
00:00:00.000 : de:00:00:00.000
00:09:40.250 : de:00:09:40.250
00:20:09.708 : de:00:20:09.708
00:28:27.000 : de:00:28:27.000
00:39:48.625 : de:00:39:48.625
00:49:15.000 : de:00:49:15.000
00:56:12.833 : de:00:56:12.833
01:03:55.541 : de:01:03:55.541
01:08:34.082 : de:01:08:34.082
01:21:32.957 : de:01:21:32.957
01:33:25.707 : de:01:33:25.707
01:49:57.332 : de:01:49:57.332
01:54:44.000 : de:01:54:44.000

Скриншоты:

[Профиль] [ЛС]
Кто просматривает тему:

Форум Тема Автор Размер
RPG King's Bounty: Темная Сторона / King's Bounty: Dark Side. Premium Edition (2014) PC | Zithylord 1.8 GB
Фильмы 2011 года Бункер / Тёмная сторона / La cara oculta (2011) BDRip-AVC от MediaClub | P, L, L1 sergej644 2.5 GB
Фантастика, фэнтези Джо Аберкромби - Первый Закон (3 книги) [Темная фэнтези, 2008-2011, FB2] Garik014 4 MB
Зарубежные Доктор Кто. Темная вода + Смерть на небесах. в 3Д / Doctor Who. Dark Water + Death in Heaven. 3D (Рэйчел Талалэй / Rachel Talalay) [2015, Научная фантастика., BDrip] Half OverUnder / Вертикал... TorrentFilm 12.75 GB
Приключения, Квесты, Логические Королевский квест. Темная башня. Коллекционное издание (2015) PC достали все 639 MB
Мировая классика Сутер Мартин - Темная сторона Луны (2015) MP3 Swager 361 MB
Ужасы и мистика Темная башня 4.5: Ветер сквозь замочную скважину (Кинг Стивен) [2014, Мистика, аудиоспектакль, MP3, 256kbps, Р. Волков, И. Волкова, Р. Волкова, О. Булдаков, Н. Петров] Magnat 1.17 GB
Фильмы 2015 года Темная бухта / Dark Cove (2015) HDRip | L1 BOSS 1.36 GB
Показать сообщения:    

Текущее время: Сегодня 07:14

Часовой пояс: GMT



Вы не можете начинать темы
Вы не можете отвечать на сообщения
Вы не можете редактировать свои сообщения
Вы не можете удалять свои сообщения
Вы не можете голосовать в опросах
Вы не можете прикреплять файлы к сообщениям
Вы не можете скачивать файлы