Тюремный эксперимент в Стэнфорде / The Stanford Prison Experiment (2015) BDRip 1080p | L

 
Автор Сообщение

достали все ®

Пол:

Стаж: 1 год 8 месяцев

Сообщений: 6591



Награды: 12 (Подробнее)

Mega Seeder 3 (Количество: 1) Top Releaser 2 (Количество: 1) Top Releaser 3 (Количество: 1)
Торрент-статистика

Создавать темы 07-Дек-2015 12:03

[Цитировать]

Информация о фильме
Название: Тюремный эксперимент в Стэнфорде
Оригинальное название: The Stanford Prison Experiment
Год выхода: 2015
Жанр: Триллер, драма
Режиссер: Кайл Патрик Альварез
В ролях: Билли Крадап, Майкл Ангарано, Мойзес Ариас, Николас Браун, Гай Чарльз, Кейр Гилкрист, Ки Хонг Ли, Томас Манн, Эзра Миллер, Логан Миллер
О фильме:
В основу фильма положен эксперимент американского психолога. Он выбрал добровольцев, которые сыграли роль надзирателей и заключенных, и устроил им в одном корпусе настоящую тюрьму. Люди быстро освоились и, к огромному удивлению психолога, стали вести себя непредсказуемо. К чему приведет вышедший из-под контроля эксперимент?


Страна: США
Студия: Abandon Pictures, Coup d'Etat Films, Sandbar Pictures
Продолжительность: 02:01:53
Перевод: Любительский многоголосный | Paradox & OMSKBIRD records
Файл
Формат: MKV
Кодек: MPEG-4 AVC
Качество: BDRip (1080p)
Видео: 1920x800 ~ 10000 Kbps 23.976fps
Аудио#1 RU: AC3, 2 ch, 448 Кбит/с
Аудио#2 EN: DTS, 6 ch, 1510 Кбит/с
Субтитры: Английские

Скриншоты

MI

Общее
Уникальный идентификатор : 190047099942744734622502555810702619697 (0x8EF9BD74BA360F729648CEB43C74F431)
Полное имя : NASMediaТюремный эксперимент в Стэнфорде.2015.BDRip.1080p.mkv
Формат : Matroska
Версия формата : Version 2
Размер файла : 10,2 Гбайт
Продолжительность : 2 ч. 1 м.
Общий поток : 12,0 Мбит/сек
Дата кодирования : UTC 2015-12-05 23:48:56
Программа кодирования : mkvmerge v8.3.0 ('Over the Horizon') 64bit
Библиотека кодирования : libebml v1.3.1 + libmatroska v1.4.2
Видео
Идентификатор : 1
Формат : AVC
Формат/Информация : Advanced Video Codec
Профиль формата : High@L4.1
Параметр CABAC формата : Да
Параметр ReFrames формата : 5 кадров
Идентификатор кодека : V_MPEG4/ISO/AVC
Продолжительность : 2 ч. 1 м.
Битрейт : 10,0 Мбит/сек
Ширина : 1920 пикселей
Высота : 800 пикселей
Соотношение сторон : 2,40:1
Режим частоты кадров : Постоянный
Частота кадров : 23,976 (24000/1001) кадра/сек
Цветовое пространство : YUV
Субдискретизация насыщенности : 4:2:0
Битовая глубина : 8 бит
Тип развёртки : Прогрессивная
Бит/(Пиксели*Кадры) : 0.273
Размер потока : 8,54 Гбайт (84%)
Библиотека кодирования : x264 core 148 r2638 7599210
Настройки программы : cabac=1 / ref=5 / deblock=1:-3:-3 / analyse=0x3:0x113 / me=umh / subme=8 / psy=1 / psy_rd=1.00:0.00 / mixed_ref=1 / me_range=16 / chroma_me=1 / trellis=1 / 8x8dct=1 / cqm=0 / deadzone=21,11 / fast_pskip=1 / chroma_qp_offset=-2 / threads=24 / lookahead_threads=4 / sliced_threads=0 / nr=0 / decimate=1 / interlaced=0 / bluray_compat=0 / constrained_intra=0 / bframes=3 / b_pyramid=2 / b_adapt=2 / b_bias=0 / direct=3 / weightb=1 / open_gop=0 / weightp=2 / keyint=240 / keyint_min=24 / scenecut=40 / intra_refresh=0 / rc_lookahead=50 / rc=2pass / mbtree=1 / bitrate=10040 / ratetol=1.0 / qcomp=0.60 / qpmin=0 / qpmax=69 / qpstep=4 / cplxblur=20.0 / qblur=0.5 / ip_ratio=1.40 / aq=3:0.80
Язык : English
Default : Да
Forced : Нет
Аудио #1
Идентификатор : 2
Формат : AC-3
Формат/Информация : Audio Coding 3
Расширение режима : CM (complete main)
Параметр Endianness формата : Big
Идентификатор кодека : A_AC3
Продолжительность : 2 ч. 1 м.
Вид битрейта : Постоянный
Битрейт : 448 Кбит/сек
Каналы : 2 канала
Расположение каналов : Front: L R
Частота : 48,0 КГц
Частота кадров : 31,250 кадров/сек (1536 spf)
Метод сжатия : С потерями
Размер потока : 391 Мбайт (4%)
Язык : Russian
Default : Да
Forced : Нет
Аудио #2
Идентификатор : 3
Формат : DTS
Формат/Информация : Digital Theater Systems
Режим : 16
Параметр Endianness формата : Big
Идентификатор кодека : A_DTS
Продолжительность : 2 ч. 1 м.
Вид битрейта : Постоянный
Битрейт : 1509 Кбит/сек
Каналы : 6 каналов
Расположение каналов : Front: L C R, Side: L R, LFE
Частота : 48,0 КГц
Частота кадров : 93,750 кадра/сек (512 spf)
Битовая глубина : 24 бит
Метод сжатия : С потерями
Размер потока : 1,28 Гбайт (13%)
Язык : English
Default : Нет
Forced : Нет
Текст #1
Идентификатор : 4
Формат : UTF-8
Идентификатор кодека : S_TEXT/UTF8
Идентификатор кодека/Информация : UTF-8 Plain Text
Продолжительность : 1 ч. 55 м.
Битрейт : 73 бит/сек
Count of elements : 2233
Размер потока : 61,8 Кбайт (0%)
Язык : English
Default : Нет
Forced : Нет
Текст #2
Идентификатор : 5
Формат : UTF-8
Идентификатор кодека : S_TEXT/UTF8
Идентификатор кодека/Информация : UTF-8 Plain Text
Продолжительность : 1 ч. 57 м.
Битрейт : 79 бит/сек
Count of elements : 2533
Размер потока : 68,3 Кбайт (0%)
Заголовок : SDH
Язык : English
Default : Нет
Forced : Нет
Меню
00:00:00.000 : en:00:00:00.000
00:11:55.089 : en:00:11:55.089
00:22:32.393 : en:00:22:32.393
00:32:06.508 : en:00:32:06.508
00:42:58.201 : en:00:42:58.201
00:55:41.338 : en:00:55:41.338
01:05:28.883 : en:01:05:28.883
01:15:33.612 : en:01:15:33.612
01:28:52.035 : en:01:28:52.035
01:38:35.868 : en:01:38:35.868
01:50:30.332 : en:01:50:30.332
01:57:44.766 : en:01:57:44.766
[Профиль] [ЛС]
Показать сообщения:    

Текущее время: Сегодня 10:00

Часовой пояс: GMT



Вы не можете начинать темы
Вы не можете отвечать на сообщения
Вы не можете редактировать свои сообщения
Вы не можете удалять свои сообщения
Вы не можете голосовать в опросах
Вы не можете прикреплять файлы к сообщениям
Вы не можете скачивать файлы