Ты, я и апокалипсис / You, Me and the Apocalypse [S01] (2015) HDTV 720p | AlexFilm

 
Автор Сообщение

достали все ®

Пол:

Стаж: 1 год 8 месяцев

Сообщений: 6554



Награды: 12 (Подробнее)

Top Releaser 3 (Количество: 1) За внесенный вклад в развитие сайта (Количество: 1) Mega Seeder 2 (Количество: 1)
Торрент-статистика

Создавать темы 16-Дек-2015 10:38

[Цитировать]

Название: Ты, я и апокалипсис
Оригинальное название: You, Me and the Apocalypse
Год выхода: 2015
Жанр: комедия, криминал, драма
Режиссер: Сауль Метцштайн, Тим Киркби, Майкл Энглер
В ролях: Кайл Соллер, Эдвард Джадж, Мэтью Бэйнтон, Дженна Фишер, Джоэль Фрай, Роб Лоу, Меган Маллалли, Макс Браун, Найджел Барбер, Пол Блэкуэлл и др.
О фильме: Когда группа обычных людей узнаёт о комете, диаметром в тринадцать километров, которая летит навстречу Земле, они спускаются под город Слау, чтобы наблюдать за концом света по телевизору. Но кто эти люди, и как пересеклись их пути?
Страна: США
Продолжительность: ~00:45:00
Перевод: Профессиональный (многоголосый закадровый) AlexFilm
Субтитры: Отсутствуют

Файл
Формат: MKV
Качество: HDTV 720р
Видео: 1280x720, 25 fps, MPEG-4 AVC ~5700 kbps avg
Аудио Rus: 48 kHz, AC3 Dolby Digital, 3/2 (L,C,R,l,r) + LFE ch, ~384.00 kbps
Аудио Eng: 48 kHz, AC3 Dolby Digital, 3/2 (L,C,R,l,r) + LFE ch, ~384.00 kbps
Релиз группа:

MediaInfo

Формат : Matroska
Версия формата : Version 4 / Version 2
Размер файла : 2,07 Гбайт
Продолжительность : 43 м.
Общий поток : 6788 Кбит/сек
Название фильма : You, Me & The Apocalypse. 1x01 @ AlexFilm
Дата кодирования : UTC 2015-10-07 20:03:08
Программа кодирования : mkvmerge v7.1.0 ('Good Love') 64bit built on Jul 27 2014 13:06:55
Библиотека кодирования : libebml v1.3.0 + libmatroska v1.4.1
Видео
Идентификатор : 1
Формат : AVC
Формат/Информация : Advanced Video Codec
Профиль формата : High@L4.1
Параметр CABAC формата : Да
Параметр ReFrames формата : 9 кадров
Идентификатор кодека : V_MPEG4/ISO/AVC
Битрейт : 5757 Кбит/сек
Ширина : 1280 пикселей
Высота : 720 пикселей
Соотношение сторон : 16:9
Режим частоты кадров : Переменный
Цветовое пространство : YUV
Субдискретизация насыщенности : 4:2:0
Битовая глубина : 8 бит
Тип развёртки : Прогрессивная
Библиотека кодирования : x264 core 148
Настройки программы : cabac=1 / ref=9 / deblock=1:-3:-3 / analyse=0x3:0x133 / me=umh / subme=11 / psy=1 / psy_rd=1.00:0.05 / mixed_ref=1 / me_range=48 / chroma_me=1 / trellis=2 / 8x8dct=1 / cqm=0 / deadzone=21,11 / fast_pskip=0 / chroma_qp_offset=-3 / threads=12 / lookahead_threads=2 / sliced_threads=0 / nr=0 / decimate=1 / interlaced=0 / bluray_compat=0 / constrained_intra=0 / bframes=8 / b_pyramid=2 / b_adapt=2 / b_bias=0 / direct=3 / weightb=1 / open_gop=0 / weightp=2 / keyint=250 / keyint_min=25 / scenecut=40 / intra_refresh=0 / rc_lookahead=150 / rc=crf / mbtree=1 / crf=17.0 / qcomp=0.80 / qpmin=0 / qpmax=69 / qpstep=4 / ip_ratio=1.40 / aq=3:1.00
Default : Да
Forced : Нет
Аудио #1
Идентификатор : 2
Формат : AC-3
Формат/Информация : Audio Coding 3
Расширение режима : CM (complete main)
Параметр Endianness формата : Big
Идентификатор кодека : A_AC3
Продолжительность : 43 м.
Вид битрейта : Постоянный
Битрейт : 448 Кбит/сек
Каналы : 6 каналов
Расположение каналов : Front: L C R, Side: L R, LFE
Частота : 48,0 КГц
Битовая глубина : 16 бит
Метод сжатия : С потерями
Размер потока : 140 Мбайт (7%)
Заголовок : DD5.1 AlexFilm
Язык : Russian
Default : Да
Forced : Нет
Аудио #2
Идентификатор : 3
Формат : AC-3
Формат/Информация : Audio Coding 3
Расширение режима : CM (complete main)
Параметр Endianness формата : Big
Идентификатор кодека : A_AC3
Продолжительность : 43 м.
Вид битрейта : Постоянный
Битрейт : 448 Кбит/сек
Каналы : 6 каналов
Расположение каналов : Front: L C R, Side: L R, LFE
Частота : 48,0 КГц
Битовая глубина : 16 бит
Метод сжатия : С потерями
Размер потока : 140 Мбайт (7%)
Заголовок : DD5.1 Original
Язык : English
Default : Нет
Forced : Нет

Скриншоты

[Профиль] [ЛС]
Кто просматривает тему:

Показать сообщения:    

Текущее время: Сегодня 08:44

Часовой пояс: GMT



Вы не можете начинать темы
Вы не можете отвечать на сообщения
Вы не можете редактировать свои сообщения
Вы не можете удалять свои сообщения
Вы не можете голосовать в опросах
Вы не можете прикреплять файлы к сообщениям
Вы не можете скачивать файлы